Важное объявление!
У Нас Все раздачи мультитрекерные, при нуле пиров в релизах, можете смело вставать на закачку!
 
Автор Сообщение

HUNTER

Стаж:
4 года 10 месяцев
Сообщений:
65462

Репутация: 101

[+] [-]
Вне форума [Профиль] [ЛС]

Рожденный убивать / Born to Kill-
Год выпуска: 1947
Страна: США
Жанр: драма, нуар
Продолжительность: 01:32:04
Перевод: Профессиональный (многоголосый закадровый)
Оригинальная аудиодорожка: Английская
Cубтитры: английские-Режиссер: Роберт Уайз / Robert Wise
В ролях: Клэр Тревор /Claire Trevor /, Лоренс Тирни /Lawrence Tierney/, Уолтер Слезак /Walter Slezak/, Филип Терри /Phillip Terry/, Одри Лонг /Audrey Long/, Элиша Кук мл. /Elisha Cook Jr./, Изабель Джевел /Isabel Jewell/-Описание:
По мотивам романа Джеймса Ганна "Беспощаднее мужчин" (Deadlier than the Male).
Убив из ревности свою девушку и ее нового ухажера, Уайлд едет в Сан-Франциско. Туда же уезжает недавно разведённая миссис Брент. Они встречаются в поезде. Их тянет друг к другу, но новый знакомый женится по расчету на ее собственной сестре. Вскоре героиня узнает, кто был убийцей молодой пары...-За дорожку спасибо ТыНьО.
| IMDb | Сэмпл-Качество: WEB-DL 720p (SbR)
Контейнер: MKV
Видео: AVC, 960x720 (1.33:1), 23.976 fps, 4057 kbps
Аудио 1: Русский AC3 2.0, 48 kHz, 192 kbps
Аудио 2: Английский AC3 1.0, 48 kHz, 192 kbps
Аудио 3: Английский AAC 2.0, 48 kHz, 117 kbps

Скриншоты


MI

General
Unique ID : 195046831475113193162945628472819223299 (0x92BCA7409B6F4A22AB6E623B08CA8B03)
Complete name : Born.to.Kill.1947.720p.WEB-DL.AAC2.0.H.264-SbR.mkv
Format : Matroska
Format version : Version 2
File size : 2.93 GiB
Duration : 1h 32mn
Overall bit rate : 4 562 Kbps
Movie name : Born to Kill / Рожденный убивать (1947) – RuTracker
Encoded date : UTC 2015-08-20 20:19:40
Writing application : mkvmerge v7.5.0 ('Glass Culture') 64bit built on Jan 4 2015 16:48:44
Writing library : libebml v1.3.1 + libmatroska v1.4.2
Attachements : cover.jpg
Video
ID : 1
Format : AVC
Format/Info : Advanced Video Codec
Format profile : Main@L3.1
Format settings, CABAC : No
Format settings, ReFrames : 2 frames
Codec ID : V_MPEG4/ISO/AVC
Duration : 1h 32mn
Width : 960 pixels
Height : 720 pixels
Display aspect ratio : 4:3
Frame rate mode : Constant
Frame rate : 23.976 fps
Color space : YUV
Chroma subsampling : 4:2:0
Bit depth : 8 bits
Scan type : Progressive
Title : Born.to.Kill.1947.720p.WEB-DL.AAC2.0.H.264-SbR
Language : English
Default : Yes
Forced : No
Color primaries : BT.709
Transfer characteristics : BT.709
Matrix coefficients : BT.709
Color range : Limited
Audio #1
ID : 2
Format : AC-3
Format/Info : Audio Coding 3
Mode extension : CM (complete main)
Format settings, Endianness : Big
Codec ID : A_AC3
Duration : 1h 32mn
Bit rate mode : Constant
Bit rate : 192 Kbps
Channel(s) : 2 channels
Channel positions : Front: L R
Sampling rate : 48.0 KHz
Bit depth : 16 bits
Compression mode : Lossy
Stream size : 126 MiB (4%)
Title : MVO
Language : Russian
Default : Yes
Forced : No
Audio #2
ID : 3
Format : AC-3
Format/Info : Audio Coding 3
Mode extension : CM (complete main)
Format settings, Endianness : Big
Codec ID : A_AC3
Duration : 1h 32mn
Bit rate mode : Constant
Bit rate : 192 Kbps
Channel(s) : 1 channel
Channel positions : Front: C
Sampling rate : 48.0 KHz
Bit depth : 16 bits
Compression mode : Lossy
Stream size : 126 MiB (4%)
Title : Original (DVD)
Language : English
Default : No
Forced : No
Audio #3
ID : 4
Format : AAC
Format/Info : Advanced Audio Codec
Format profile : LC
Codec ID : A_AAC
Duration : 1h 32mn
Channel(s) : 2 channels
Channel positions : Front: L R
Sampling rate : 48.0 KHz
Compression mode : Lossy
Title : Original (iTunes)
Language : English
Default : No
Forced : No
Text #1
ID : 5
Format : UTF-8
Codec ID : S_TEXT/UTF8
Codec ID/Info : UTF-8 Plain Text
Language : English
Default : No
Forced : No
Text #2
ID : 6
Format : UTF-8
Codec ID : S_TEXT/UTF8
Codec ID/Info : UTF-8 Plain Text
Title : SDH
Language : English
Default : No
Forced : No

_________________
Показать сообщения:    

Текущее время: Сегодня 22:27

Часовой пояс: GMT



Вы не можете начинать темы
Вы не можете отвечать на сообщения
Вы не можете редактировать свои сообщения
Вы не можете удалять свои сообщения
Вы не можете голосовать в опросах
Вы не можете прикреплять файлы к сообщениям
Вы не можете скачивать файлы