Важное объявление!
У Нас Все раздачи мультитрекерные, при нуле пиров в релизах, можете смело вставать на закачку!
 
Автор Сообщение

HUNTER

Стаж:
4 года 7 месяцев
Сообщений:
61521

Репутация: 101

[+] [-]
Вне форума [Профиль] [ЛС]

Рожденная вчера / Born Yesterday
Страна: США
Жанр: драма, мелодрама, комедия
Год выпуска: 1950
Продолжительность: 01:42:17
Перевод 1: Профессиональный (многоголосый закадровый) ТРК "Петербург - 5-й канал"
Перевод 2: Профессиональный (двухголосый закадровый)
Cубтитры: английские
Оригинальная аудиодорожка: английский
Режиссер: Джордж Кьюкор / George Cukor
В ролях: Джуди Холлидэй, Бродерик Кроуфорд, Уильям Холден, Ховард Ст. Джон, Фрэнк Отто, Ларри Оливер, Барбара Браун, Грэндон Родс, Клер Карлтон, Чарльз Кейн
Описание: Гарри Брок сколотил свое состояние на металлоломе. Теперь он богат, может позволить снять целое крыло апартаментов класса люкс в самом дорогом отеле, и вообще он может позволить купить себе практически все. Для расширения своего бизнеса Гарри необходимо «утрясти» дела с законом, а именно: протолкнуть бизнес через тернии закона. Для этого Гарри приезжает в Вашингтон, дабы договориться о помощи с конгрессменом, который «протолкнет» нужную ему поправку к закону. Конечно же, Гарри путешествует не один - его сопровождают верный помощник, его адвокат и его «компаньонша» Билли. Билли симпатична, молода и может стильно одеться, однако есть одно но - она глупа, в прямом смысле этого слова. И тогда магнат-миллионер нанимает преподавателя по этикету для своей любовницы...
По пьесе Гарсона Кэнина.
Доп. информация:


За дорожку с переводом 5-го канала спасибо palmeiras
За двухголоску спасибо Гостю (к сожалению, качество дорожки оставляет желать лучшего)
Сэмпл: http://sendfile.su/1037940
Тип релиза: BDRip 720p (DON)
Контейнер: MKV
Видео: AVC, 986x720 (4:3), L4.1, 23,976fps, 14921kbps
Аудио 1: Russian: AC3, 48000Hz, 2ch, 256kbps - 5-й канал
Аудио 2: Russian: AC3, 48000Hz, 2ch, 192kbps - DVO
Аудио 3: English: FLAC, 48000Hz, 1ch, 24bit, 513kbps
Формат субтитров: softsub (SRT)

MediaInfo

Общее
Уникальный идентификатор : 241148837663966388007532602614856840188 (0xB56B93A5F6225921B7D133363D3873FC)
Полное имя : T:\Born Yesterday (BDRip 720p).mkv
Формат : Matroska
Версия формата : Version 4 / Version 2
Размер файла : 11,3 Гбайт
Продолжительность : 1 ч. 42 м.
Режим общего битрейта : Переменный
Общий поток : 15,9 Мбит/сек
Название фильма : Born Yesterday (1950) - HDBits Internal
Дата кодирования : UTC 2014-10-21 05:55:17
Программа кодирования : mkvmerge v6.9.1 ('Blue Panther') 64bit built on Apr 18 2014 18:23:38
Библиотека кодирования : libebml v1.3.0 + libmatroska v1.4.1
Видео
Идентификатор : 1
Формат : AVC
Формат/Информация : Advanced Video Codec
Профиль формата : High@L4.1
Параметр CABAC формата : Да
Параметр ReFrames формата : 11 кадров
Идентификатор кодека : V_MPEG4/ISO/AVC
Продолжительность : 1 ч. 42 м.
Ширина : 986 пикселей
Высота : 720 пикселей
Соотношение сторон : 4:3
Соотношение сторон в оригинале : 1,370
Режим частоты кадров : Постоянный
Частота кадров : 23,976 кадра/сек
Цветовое пространство : YUV
Субдискретизация насыщенности : 4:2:0
Битовая глубина : 8 бит
Тип развёртки : Прогрессивная
Заголовок : HDBits Internal
Библиотека кодирования : x264 core 142 r2431+42 c69a006 tMod [8-bit@4:2:0 X86_64]
Настройки программы : cabac=1 / ref=11 / deblock=1:-3:-3 / analyse=0x3:0x113 / me=umh / subme=11 / psy=1 / fade_compensate=0.00 / psy_rd=1.10:0.00 / mixed_ref=1 / me_range=32 / chroma_me=1 / trellis=2 / 8x8dct=1 / cqm=0 / deadzone=21,11 / fast_pskip=0 / chroma_qp_offset=-2 / threads=6 / lookahead_threads=1 / sliced_threads=0 / nr=0 / decimate=0 / interlaced=0 / bluray_compat=0 / constrained_intra=0 / fgo=0 / bframes=10 / b_pyramid=2 / b_adapt=2 / b_bias=0 / direct=3 / weightb=1 / open_gop=0 / weightp=2 / keyint=250 / keyint_min=23 / scenecut=40 / intra_refresh=0 / rc_lookahead=60 / rc=crf / mbtree=0 / crf=16.5000 / qcomp=0.65 / qpmin=0:0:0 / qpmax=69:69:69 / qpstep=4 / vbv_maxrate=62500 / vbv_bufsize=78125 / crf_max=0.0 / nal_hrd=none / filler=0 / ip_ratio=1.20 / pb_ratio=1.15 / aq=1:0.85 / aq-sensitivity=10.00 / aq-factor=1.00:1.00:1.00 / aq2=1:0.70 / aq2-sensitivity=15.00 / aq2-factor=1.00:1.00:1.00 / aq3=0
Язык : English
Default : Да
Forced : Нет
Аудио #1
Идентификатор : 2
Формат : AC-3
Формат/Информация : Audio Coding 3
Расширение режима : CM (complete main)
Параметр Endianness формата : Big
Идентификатор кодека : A_AC3
Продолжительность : 1 ч. 42 м.
Вид битрейта : Постоянный
Битрейт : 256 Кбит/сек
Каналы : 2 канала
Расположение каналов : Front: L R
Частота : 48,0 КГц
Битовая глубина : 16 бит
Метод сжатия : С потерями
Размер потока : 187 Мбайт (2%)
Заголовок : 5 канал
Язык : Russian
Default : Да
Forced : Нет
Аудио #2
Идентификатор : 3
Формат : AC-3
Формат/Информация : Audio Coding 3
Расширение режима : CM (complete main)
Параметр Endianness формата : Big
Идентификатор кодека : A_AC3
Продолжительность : 1 ч. 42 м.
Вид битрейта : Постоянный
Битрейт : 192 Кбит/сек
Каналы : 2 канала
Расположение каналов : Front: L R
Частота : 48,0 КГц
Битовая глубина : 16 бит
Метод сжатия : С потерями
Размер потока : 140 Мбайт (1%)
Заголовок : DVO
Язык : Russian
Default : Нет
Forced : Нет
Аудио #3
Идентификатор : 4
Формат : FLAC
Формат/Информация : Free Lossless Audio Codec
Идентификатор кодека : A_FLAC
Продолжительность : 1 ч. 42 м.
Вид битрейта : Переменный
Каналы : 1 канал
Частота : 48,0 КГц
Битовая глубина : 24 бит
Библиотека кодирования : libFLAC 1.3.0 (UTC 2013-05-26)
Язык : English
Default : Нет
Forced : Нет
Текст #1
Идентификатор : 5
Формат : UTF-8
Идентификатор кодека : S_TEXT/UTF8
Идентификатор кодека/Информация : UTF-8 Plain Text
Язык : English
Default : Нет
Forced : Нет
Текст #2
Идентификатор : 6
Формат : UTF-8
Идентификатор кодека : S_TEXT/UTF8
Идентификатор кодека/Информация : UTF-8 Plain Text
Заголовок : SDH
Язык : English
Default : Нет
Forced : Нет
Меню
00:00:00.000 : en:00:00:00.000
00:07:27.614 : en:00:07:27.614
00:13:02.490 : en:00:13:02.490
00:25:10.426 : en:00:25:10.426
00:31:57.624 : en:00:31:57.624
00:41:03.211 : en:00:41:03.211
00:50:40.120 : en:00:50:40.120
00:59:15.802 : en:00:59:15.802
01:09:09.437 : en:01:09:09.437
01:21:06.904 : en:01:21:06.904
01:32:08.898 : en:01:32:08.898
01:41:58.988 : en:01:41:58.988

Сравнения

encode vs. web-dl



Скриншоты


_________________
Показать сообщения:    

Текущее время: Сегодня 20:06

Часовой пояс: GMT



Вы не можете начинать темы
Вы не можете отвечать на сообщения
Вы не можете редактировать свои сообщения
Вы не можете удалять свои сообщения
Вы не можете голосовать в опросах
Вы не можете прикреплять файлы к сообщениям
Вы не можете скачивать файлы
Наши партнеры: интернет магазин Ивановского трикотажа textilla.ru