Важное объявление!
У Нас Все раздачи мультитрекерные, при нуле пиров в релизах, можете смело вставать на закачку!
 
Автор Сообщение

HUNTER

Стаж:
4 года 5 месяцев
Сообщений:
60886

Репутация: 101

[+] [-]
Вне форума [Профиль] [ЛС]

Рожденная вчера / Born Yesterday
Страна: США
Студия: Columbia Pictures Corporation
Жанр: комедия, мелодрама
Год выпуска: 1950
Продолжительность: 1:42:17
Перевод: Профессиональный (многоголосый закадровый) 5-й канал СПб
Cубтитры: нет
Оригинальная аудиодорожка: английский
Режиссер: Джордж Кьюкор / George Cukor
В ролях: Джуди Холлидэй, Бродерик Кроуфорд, Уильям Холден, Ховард Ст. Джон, Фрэнк Отто, Ларри Оливер, Барбара Браун, Грэндон Родс, Клер Карлтон, Чарльз Кейн
Описание: Гарри Брок сколотил свое состояние на металлоломе. Теперь он богат, может позволить снять целое крыло апартаментов класса люкс в самом дорогом отеле, и вообще он может позволить купить себе практически все. Для расширения своего бизнеса Гарри необходимо «утрясти» дела с законом, а именно: протолкнуть бизнес через тернии закона. Для этого Гарри приезжает в Вашингтон, дабы договориться о помощи с конгрессменом, который «протолкнет» нужную ему поправку к закону. Конечно же, Гарри путешествует не один - его сопровождают верный помощник, его адвокат и его «компаньонша» Билли. Билли симпатична, молода и может стильно одеться, однако есть одно но - она глупа, в прямом смысле этого слова. И тогда магнат-миллионер нанимает преподавателя по этикету для своей любовницы...
И вот такой простенький фильм номинировался на 4 премии Оскар (фильм; режиссер (Джордж Кьюкор); сценарий; работа костюмера (ч/б фильмы). Но самой большой неожиданностью стало то, что исполнительница главной женской роли Джуди Холлидэй была признана за этот фильм лучшей актрисой, притом что в конкурентках у нее были Бетт Дэвис (за фильм "Все о Еве") и Глория Суонсон (за "Бульвар Сансет").
По пьесе Гарсона Канина (Garson Kanin).

Сэмпл: http://multi-up.com/844906
Тип релиза: WEB-DL 720p
Контейнер: MKV
Видео: x264, 970x720 (4:3), 3977 Kbps, 23.976 fps
Аудио: Русский, AC3, 48 KHz, 192 Kbps
Аудио 2: Английский, AC3, 48 KHz, 160 Kbps

Награды и номинации

Оскар, 1951 год
Победитель (1):
Лучшая женская роль (Джуди Холлидэй)
Номинации (4):
Лучший фильм
Лучший режиссер (Джордж Кьюкор)
Лучший адаптированный сценарий
Лучшая работа художника по костюмам (ч/б фильмы)
Золотой глобус, 1951 год
Победитель (1):
Лучшая женская роль (комедия или мюзикл) (Джуди Холлидэй)
Номинации (3):
Лучший фильм (драма)
Лучшая женская роль (драма) (Джуди Холлидэй)
Лучший режиссер (Джордж Кьюкор)
Венецианский кинофестиваль, 1951 год
Номинации (1):
Золотой лев

MediaInfo

Общее
Уникальный идентификатор : 170758671086006180822209561126987150613 (0x8076EC7D8E4F9170845C01F98E64B515)
Полное имя : Rozdennaja.vchera.1950.720p.WEB-DLH.264.mkv
Формат : Matroska
Версия формата : Version 2
Размер файла : 3,16 Гбайт
Продолжительность : 1 ч. 42 м.
Общий поток : 4417 Кбит/сек
Дата кодирования : UTC 2013-03-19 23:16:22
Программа кодирования : mkvmerge v5.2.1 ('A Far Off Place') built on Jan 2 2012 23:21:10
Библиотека кодирования : libebml v1.2.3 + libmatroska v1.3.0
Видео
Идентификатор : 1
Формат : AVC
Формат/Информация : Advanced Video Codec
Профиль формата : High@L3.1
Параметр CABAC формата : Нет
Параметр ReFrames формата : 2 кадра
Параметр GOP формата : M=2, N=70
Идентификатор кодека : V_MPEG4/ISO/AVC
Продолжительность : 1 ч. 42 м.
Битрейт : 3977 Кбит/сек
Ширина : 970 пикселей
Высота : 720 пикселей
Соотношение сторон : 4:3
Частота кадров : 23,976 кадра/сек
Цветовое пространство : YUV
Субдискретизация насыщенности : 4:2:0
Битовая глубина : 8 бит
Тип развёртки : Прогрессивная
Бит/(Пиксели*Кадры) : 0.238
Размер потока : 2,84 Гбайт (90%)
Язык : English
Default : Да
Forced : Нет
Основные цвета : BT.709-5, BT.1361, IEC 61966-2-4, SMPTE RP177
Характеристики трансфера : BT.709-5, BT.1361
Коэффициенты матрицы : BT.709-5, BT.1361, IEC 61966-2-4 709, SMPTE RP177
Аудио #1
Идентификатор : 2
Формат : AC-3
Формат/Информация : Audio Coding 3
Расширение режима : CM (complete main)
Параметр Endianness формата : Big
Идентификатор кодека : A_AC3
Продолжительность : 1 ч. 42 м.
Вид битрейта : Постоянный
Битрейт : 192 Кбит/сек
Каналы : 2 канала
Расположение каналов : Front: L R
Частота : 48,0 КГц
Битовая глубина : 16 бит
Метод сжатия : С потерями
Размер потока : 140 Мбайт (4%)
Язык : Russian
Default : Да
Forced : Нет
Аудио #2
Идентификатор : 3
Формат : AC-3
Формат/Информация : Audio Coding 3
Расширение режима : CM (complete main)
Параметр Endianness формата : Big
Идентификатор кодека : A_AC3
Продолжительность : 1 ч. 42 м.
Вид битрейта : Постоянный
Битрейт : 160 Кбит/сек
Каналы : 2 канала
Расположение каналов : Front: L R
Частота : 48,0 КГц
Битовая глубина : 16 бит
Метод сжатия : С потерями
Размер потока : 117 Мбайт (4%)
Язык : English
Default : Нет
Forced : Нет
Меню
00:00:00.000 : en:Chapter 1
00:06:23.000 : en:Chapter 2
00:13:03.000 : en:Chapter 3
00:20:34.000 : en:Chapter 4
00:26:28.000 : en:Chapter 5
00:31:58.000 : en:Chapter 6
00:39:11.000 : en:Chapter 7
00:46:53.000 : en:Chapter 8
00:54:50.000 : en:Chapter 9
00:59:18.000 : en:Chapter 10
01:07:51.000 : en:Chapter 11
01:13:59.000 : en:Chapter 12
01:19:33.000 : en:Chapter 13
01:26:17.000 : en:Chapter 14
01:31:06.000 : en:Chapter 15
01:40:53.000 : en:Chapter 16

Скриншоты


_________________
Показать сообщения:    

Текущее время: Сегодня 16:05

Часовой пояс: GMT



Вы не можете начинать темы
Вы не можете отвечать на сообщения
Вы не можете редактировать свои сообщения
Вы не можете удалять свои сообщения
Вы не можете голосовать в опросах
Вы не можете прикреплять файлы к сообщениям
Вы не можете скачивать файлы
Наши партнеры: интернет магазин Ивановского трикотажа textilla.ru