Важное объявление!
У Нас Все раздачи мультитрекерные, при нуле пиров в релизах, можете смело вставать на закачку!
Статистика раздачи
Размер:     |    Зарегистрирован:     |    Скачан:     |   
Нет
 
     
 
 
Автор Сообщение

HUNTER

Стаж:
5 лет
Сообщений:
68042

Репутация: 101

[+] [-]
Вне форума [Профиль] [ЛС]

Родной человек-
  • Год выпуска: 2013
  • Страна: Россия
  • Жанр: мелодрама
  • Продолжительность: 01:29:54
  • Перевод: Не требуется
-
  • Режиссер: Игорь Штернберг
  • Сценарий: Марина Тарабанчук
- -
  • Главные герои фильма «Родной человек», Коля и Алла, еще с детства любили друг друга. Они даже в знак своей любви, подражая взрослым, обменялись колечками. Шли годы, а их любовь только усиливалась. Несмотря на то, что родителя Николая недоброжелательно относились к Алле, они были уверенны, что никто не в силах помешать их счастью. Однажды, Алла знакомится с Игорем и один выезд с ним за город навсегда меняет судьбу Аллы. Она оказывается перед тяжелым выбором, от которого уже зависит не только ее счастье…
    «Родной человек» - новая отечественная мелодрама с хорошими актерами и немного предсказуемым финалом. Приятно смотрятся романтичные детские воспоминания главных героев и тяжело - жизненные испытания. После просмотра остается предчувствие, что еще не все жизненные трудности прошли главные герои, так что можно снимать продолжение.
--
  • Премьера (РФ): 14 апреля 2013
-
    --
    • Рейтинг:
    --
    • Качество: SATRip
    • Формат: AVI
    • Видео кодек: DivX 5
    • Аудио кодеk: MPEG-1/2 L3
    • Видео: 704x400 (16:9), 25.000 fps, DivX 5, 948 Kbps
    • Аудио: Аудио #1: MPEG-1/2 L3, 128 Kbps, 44.1 KHz, 2 ch
    -

    МедиаИнфо

    Код: copyText_writeLink('this.parentNode.parentNode.nextSibling.nextSibling'); General
    Complete name : Rodnoj.chelovek.avi
    Format : AVI
    Format/Info : Audio Video Interleave
    File size : 701 MiB
    Duration : 1h 29mn
    Overall bit rate : 1 089 Kbps
    Video
    ID : 0
    Format : MPEG-4 Visual
    Format settings, BVOP : Yes
    Format settings, QPel : No
    Format settings, GMC : No warppoints
    Format settings, Matrix : Default (H.263)
    Codec ID : DX50
    Codec ID/Hint : DivX 5
    Duration : 5mn 27s
    Bit rate : 948 Kbps
    Width : 704 pixels
    Height : 400 pixels
    Display aspect ratio : 16:9
    Frame rate : 25.000 fps
    Color space : YUV
    Chroma subsampling : 4:2:0
    Bit depth : 8 bits
    Scan type : Progressive
    Bits/(Pixel*Frame) : 0.135
    Stream size : 37.0 MiB (5%)
    Writing library : Intel(R) MPEG-4 encoder based on Intel(R) IPP 6.1 build 137.20[6.1.137.763]
    Audio
    ID : 1
    Format : MPEG Audio
    Codec ID : 55
    Codec ID/Hint : MP3
    Duration : 1h 29mn
    Bit rate : 128 Kbps
    Channel(s) : 2 channels
    Sampling rate : 44.1 KHz
    Stream size : 82.3 MiB (12%)
    Alignment : Aligned on interleaves

    Трейлер

    -
    -© Оформление by www.rustorka.com- -Не уходите с раздачи, помогайте раздавать! Скачал сам, помоги скачать другим раздавая скачанное. Помните, что файлы раздачи размещены у других пользователей, таких же качающих или уже скачавших как и Вы, поэтому если кто-то удалит файлы и торрент-файл из клиента, то велика возможность того, что материалов раздачи не останется ни у кого и другие, такие же участники сети не смогут их скачать. Давайте начинать перемены с себя.-

    _________________
    Показать сообщения:    

    Текущее время: Сегодня 16:46

    Часовой пояс: GMT



    Вы не можете начинать темы
    Вы не можете отвечать на сообщения
    Вы не можете редактировать свои сообщения
    Вы не можете удалять свои сообщения
    Вы не можете голосовать в опросах
    Вы не можете прикреплять файлы к сообщениям
    Вы не можете скачивать файлы