Важное объявление!
У Нас Все раздачи мультитрекерные, при нуле пиров в релизах, можете смело вставать на закачку!
 
Автор Сообщение

HUNTER

Стаж:
4 года 7 месяцев
Сообщений:
61500

Репутация: 101

[+] [-]
Вне форума [Профиль] [ЛС]

Робокоп 1, 2, 3 [Трилогия] / Robocop 1, 2, 3 [Trilogy]

Робокоп / Robocop

Робокоп / Robocop
Год выпуска: 1987
Страна: США
Жанр: Фантастика, боевик
Продолжительность: 01:43:00
Перевод: Профессиональный (многоголосый, закадровый)
Субтитры: нет
Режиссёр: Пол Верховен
В ролях: Питер Уэллер, Нэнси Аллен, Дэн О`Херлихи, Ронни Кокс, Кертвуд Смит, Мигель Феррер, Роберт Дукуй, Рэй Уайз, Фелтон Перри, Пол МакКрейн, Джон Дейвис, Тайриз Аллен, Иоланда Уильямс, Кевин Пейдж, Чарльз Кэррол, Джин Воланд, Нил Саммерс, Фредди Хайс, Майкл Грегори, Эдвард Эдвардс, Марк Карлтон, Ли Де Бру, Рик Либерман, Кэлвин Джанг, Дел Замора, Джесси Д. Гойнс, Дэррил Кокс, Карен Рэдклифф, Сэйдж Паркер, Лэйрд Стюарт, Джерри Хэйнс, Уильям Шокли, Донна Кигэн
Описание: После гибели одного из лучших полицейских врачи-экспериментаторы создают из него неуязвимого киборга Робокопа, который в одиночку борется с бандой преступников. Однако прочная броня не спасает Робокопа от мучительных, обрывочных воспоминаний о прошлом: он постоянно видит кошмарные сны, в которых погибает от руки жестоких преступников. Теперь он ждет не только правосудия,… но и жаждет мести!..
Качество: BDRip [720p]
Формат: MKV
Видео кодек: х264
Аудио кодек: DTS
Видео: 1280х688p (1.86:1), 23,976 fps, MPEG4 AVC (x264) [url=mailto:High@L5.1]High@L5.1[/url], ~4 555 Kbps avg, 0.215 bits/pixel
Аудио:
Аудио#1: Русский: 48.0 kHz, DTS, 6 ch, ~775 kbps avg [Профессиональный (многоголосный закадровый)]
Аудио#2: Английский: 48.0 kHz, DTS, 6 ch, ~1510 kbps avg [Оригинал]

MediaInfo

Общее
Уникальный идентификатор : 200160807757794604888483429279857539575 (0x969591BFF6195AEB8B7F2FB36A4E79F7)
Полное имя : E:\Фильмы
obocop_trilogy_\Robocop.720p.BluRay.x264.mkv
Формат : Matroska
Размер файла : 4,92 Гбайт
Продолжительность : 1 ч. 43 м.
Общий поток : 6818 Кбит/сек
Дата кодирования : UTC 2008-03-24 14:19:46
Программа кодирования : mkvmerge v2.2.0 ('Turn It On Again') built on Mar 4 2008 12:58:26
Библиотека кодирования : libebml v0.7.7 + libmatroska v0.8.1
Видео
Идентификатор : 1
Формат : AVC
Формат/Информация : Advanced Video Codec
Профиль формата : [url=mailto:High@L5.1]High@L5.1[/url]
Параметр CABAC формата : Да
Параметр ReFrames формата : 5 кадров
Идентификатор кодека : V_MPEG4/ISO/AVC
Продолжительность : 1 ч. 43 м.
Битрейт : 4550 Кбит/сек
Ширина : 1280 пикс.
Высота : 688 пикс.
Соотношение сторон : 1,860
Частота кадров : 23,976 кадр/сек
Цветовое пространство : YUV
Подвыборка цветности : 4:2:0
Битовая глубина : 8 бит
Тип развёртки : Прогрессивная
Бит/(Пиксели*Кадры) : 0.215
Размер потока : 3,19 Гбайт (65%)
Библиотека кодирования : x264 core 58 r749 096b390
Настройки программы : cabac=1 / ref=5 / deblock=1:0:0 / analyse=0x3:0x113 / me=umh / subme=7 / brdo=1 / mixed_ref=1 / me_range=16 / chroma_me=1 / trellis=1 / 8x8dct=1 / cqm=0 / deadzone=21,11 / chroma_qp_offset=0 / threads=6 / nr=0 / decimate=1 / mbaff=0 / bframes=3 / b_pyramid=1 / b_adapt=1 / b_bias=0 / direct=1 / wpredb=1 / bime=1 / keyint=250 / keyint_min=25 / scenecut=40(pre) / rc=2pass / bitrate=4550 / ratetol=1.0 / rceq='blurCplx^(1-qComp)' / qcomp=0.60 / qpmin=10 / qpmax=51 / qpstep=4 / cplxblur=20.0 / qblur=0.5 / ip_ratio=1.40 / pb_ratio=1.30
Язык : English
Аудио #1
Идентификатор : 2
Формат : DTS
Формат/Информация : Digital Theater Systems
Идентификатор кодека : A_DTS
Продолжительность : 1 ч. 43 м.
Вид битрейта : Постоянный
Битрейт : 1510 Кбит/сек
Каналы : 6 каналов
Расположение каналов : Front: L C R, Side: L R, LFE
Частота : 48,0 КГц
Битовая глубина : 24 бит
Метод сжатия : С потерями
Размер потока : 1,09 Гбайт (22%)
Заголовок : English DTS
Язык : English
Аудио #2
Идентификатор : 3
Формат : DTS
Формат/Информация : Digital Theater Systems
Идентификатор кодека : A_DTS
Продолжительность : 1 ч. 43 м.
Вид битрейта : Постоянный
Битрейт : 755 Кбит/сек
Каналы : 6 каналов
Расположение каналов : Front: L C R, Side: L R, LFE
Частота : 48,0 КГц
Битовая глубина : 24 бит
Метод сжатия : С потерями
Размер потока : 557 Мбайт (11%)
Заголовок : Russian DTS
Язык : Russian

Скриншоты



Робокоп 2 / Robocop 2

Робокоп 2 / Robocop 2
Год выпуска: 1990
Страна: США
Жанр: Фантастика, боевик
Продолжительность: 01:56:40
Перевод: Профессиональный (полное дублирование)
Субтитры: нет
Режиссёр: Ирвин Кершнер
В ролях: Питер Уэллер, Белинда Бауэр, Джон Гловер, Марио Мачадо, Лиза Гиббонс, Джон Ингл, Том Нунен, Роджер Аарон Браун, Гэбриел Дэймон, Марк Ролстон, Нэнси Аллен
Описание: Наркодельцы стремятся захватить власть в городе, подчинить органы управления и поработить жителей. Робот-полицейский — единственная надежда в борьбе с распоясавшимися негодяями. Но бандиты, зная о его существовании, создают свою машину — киборга, при помощи которого они надеются избавиться от кибернетического блюстителя порядка, и установить тотальный контроль…
Качество: BDRip [720p]
Формат: MKV
Видео кодек: х264
Аудио кодек: AC3
Видео: 1280х694p (16:9), 23,976 fps, MPEG4 AVC (x264) [url=mailto:High@L4.1]High@L4.1[/url], ~6 468 Kbps avg, 0.304 bits/pixel
Аудио:
Аудио#1: Русский: 48.0 kHz, AC3, 6 ch, ~448 kbps avg [Профессиональный (полное дублирование)]
Аудио#2: Русский: 48.0 kHz, AC3, 6 ch, ~448 kbps avg [Профессиональный (многоголосный закадровый)(Супербит)]
Аудио#3: Русский: 48.0 kHz, AC3, 6 ch, ~448 kbps avg [Профессиональный (Авторский одноголосный)(Гаврилов)]
Аудио#4: Русский: 48.0 kHz, AC3, 6 ch, ~448 kbps avg [Профессиональный (Авторский одноголосный)(Карцев)]
Аудио#5: Русский: 48.0 kHz, AC3, 6 ch, ~192 kbps avg [Профессиональный (Авторский одноголосный)(Поздняков)]
Аудио#6: Русский: 48.0 kHz, AC3, 6 ch, ~448 kbps avg [Профессиональный (многоголосный закадровый)(НТВ)]
Аудио#7: Русский: 48.0 kHz, AC3, 6 ch, ~192 kbps avg [Профессиональный (многоголосный закадровый)(СТС)]
Аудио#8: Английский: 48.0 kHz, DTS, 6 ch, ~1510 kbps avg [Оригинал]

MediaInfo

Общее
Уникальный идентификатор : 193899846639775359603287502072331159585 (0x91DFC088ADF381C08C0CC9FA0768C821)
Полное имя : E:\Фильмы
obocop_trilogy\Robocop2.1990.BluRay.720p.DTS.x264-CHD.mkv
Формат : Matroska
Размер файла : 8,64 Гбайт
Продолжительность : 1 ч. 56 м.
Общий поток : 10,6 Мбит/сек
Дата кодирования : UTC 2010-09-28 16:01:41
Программа кодирования : mkvmerge v4.1.1 ('Bouncin' Back') сборка от Jul 3 2010 22:54:08
Библиотека кодирования : libebml v1.0.0 + libmatroska v1.0.0
Видео
Идентификатор : 1
Формат : AVC
Формат/Информация : Advanced Video Codec
Профиль формата : [url=mailto:High@L4.1]High@L4.1[/url]
Параметр CABAC формата : Да
Параметр ReFrames формата : 8 кадров
Идентификатор кодека : V_MPEG4/ISO/AVC
Продолжительность : 1 ч. 56 м.
Битрейт : 6468 Кбит/сек
Ширина : 1280 пикс.
Высота : 694 пикс.
Соотношение сторон : 16:9
Частота кадров : 23,976 кадр/сек
Цветовое пространство : YUV
Подвыборка цветности : 4:2:0
Битовая глубина : 8 бит
Тип развёртки : Прогрессивная
Бит/(Пиксели*Кадры) : 0.304
Размер потока : 5,09 Гбайт (59%)
Заголовок : MPEG4 x264 1280x694 23.976 fps
Библиотека кодирования : x264 core 102 r1666 d058f37
Настройки программы : cabac=1 / ref=8 / deblock=1:-3:-3 / analyse=0x3:0x113 / me=umh / subme=9 / psy=1 / psy_rd=1.05:0.00 / mixed_ref=1 / me_range=32 / chroma_me=1 / trellis=2 / 8x8dct=1 / cqm=2 / deadzone=21,11 / fast_pskip=0 / chroma_qp_offset=-1 / threads=12 / sliced_threads=0 / nr=0 / decimate=1 / interlaced=0 / constrained_intra=0 / bframes=6 / b_pyramid=2 / b_adapt=2 / b_bias=0 / direct=3 / weightb=1 / open_gop=0 / weightp=2 / keyint=250 / keyint_min=25 / scenecut=40 / intra_refresh=0 / rc_lookahead=50 / rc=2pass / mbtree=1 / bitrate=6468 / ratetol=1.0 / qcomp=0.60 / qpmin=10 / qpmax=51 / qpstep=4 / cplxblur=20.0 / qblur=0.5 / vbv_maxrate=50000 / vbv_bufsize=50000 / ip_ratio=1.40 / aq=1:1.00 / nal_hrd=none
Язык : English
Аудио #1
Идентификатор : 2
Формат : AC-3
Формат/Информация : Audio Coding 3
Расширение режима : CM (complete main)
Режим смешивания : Header stripping
Идентификатор кодека : A_AC3
Продолжительность : 1 ч. 56 м.
Вид битрейта : Постоянный
Битрейт : 448 Кбит/сек
Каналы : 6 каналов
Расположение каналов : Front: L C R, Side: L R, LFE
Частота : 48,0 КГц
Битовая глубина : 16 бит
Метод сжатия : С потерями
Размер потока : 374 Мбайт (4%)
Заголовок : AC3 , 5.1 , 48Khz , 448 kbps - Дубляж
Язык : Russian
Аудио #2
Идентификатор : 3
Формат : AC-3
Формат/Информация : Audio Coding 3
Расширение режима : CM (complete main)
Режим смешивания : Header stripping
Идентификатор кодека : A_AC3
Продолжительность : 1 ч. 56 м.
Вид битрейта : Постоянный
Битрейт : 448 Кбит/сек
Каналы : 6 каналов
Расположение каналов : Front: L C R, Side: L R, LFE
Частота : 48,0 КГц
Битовая глубина : 16 бит
Метод сжатия : С потерями
Размер потока : 374 Мбайт (4%)
Заголовок : AC3 , 5.1 , 48Khz , 448 kbps - Многоголосый, Киномания (Супербит)
Язык : Russian
Аудио #3
Идентификатор : 4
Формат : AC-3
Формат/Информация : Audio Coding 3
Расширение режима : CM (complete main)
Режим смешивания : Header stripping
Идентификатор кодека : A_AC3
Продолжительность : 1 ч. 56 м.
Вид битрейта : Постоянный
Битрейт : 448 Кбит/сек
Каналы : 6 каналов
Расположение каналов : Front: L C R, Side: L R, LFE
Частота : 48,0 КГц
Битовая глубина : 16 бит
Метод сжатия : С потерями
Размер потока : 374 Мбайт (4%)
Заголовок : AC3 , 5.1 , 48Khz , 448 kbps - Авторский, Гаврилов
Язык : Russian
Аудио #4
Идентификатор : 5
Формат : AC-3
Формат/Информация : Audio Coding 3
Расширение режима : CM (complete main)
Режим смешивания : Header stripping
Идентификатор кодека : A_AC3
Продолжительность : 1 ч. 56 м.
Вид битрейта : Постоянный
Битрейт : 448 Кбит/сек
Каналы : 6 каналов
Расположение каналов : Front: L C R, Side: L R, LFE
Частота : 48,0 КГц
Битовая глубина : 16 бит
Метод сжатия : С потерями
Размер потока : 374 Мбайт (4%)
Заголовок : AC3 , 5.1 , 48Khz , 448 kbps - Авторский, Карцев
Язык : Russian
Аудио #5
Идентификатор : 6
Формат : AC-3
Формат/Информация : Audio Coding 3
Расширение режима : CM (complete main)
Режим смешивания : Header stripping
Идентификатор кодека : A_AC3
Продолжительность : 1 ч. 56 м.
Вид битрейта : Постоянный
Битрейт : 192 Кбит/сек
Каналы : 2 канала
Расположение каналов : Front: L R
Частота : 48,0 КГц
Битовая глубина : 16 бит
Метод сжатия : С потерями
Размер потока : 160 Мбайт (2%)
Заголовок : MPEG Layer 3, 2 ch, ~256.00 kbps avg - Авторский, Поздняков
Язык : Russian
Аудио #6
Идентификатор : 7
Формат : AC-3
Формат/Информация : Audio Coding 3
Расширение режима : CM (complete main)
Режим смешивания : Header stripping
Идентификатор кодека : A_AC3
Продолжительность : 1 ч. 56 м.
Вид битрейта : Постоянный
Битрейт : 448 Кбит/сек
Каналы : 6 каналов
Расположение каналов : Front: L C R, Side: L R, LFE
Частота : 48,0 КГц
Битовая глубина : 16 бит
Метод сжатия : С потерями
Размер потока : 374 Мбайт (4%)
Заголовок : AC3 , 5.1 , 48Khz , 448 kbps - Многоголосый, НТВ
Язык : Russian
Аудио #7
Идентификатор : 8
Формат : AC-3
Формат/Информация : Audio Coding 3
Расширение режима : CM (complete main)
Режим смешивания : Header stripping
Идентификатор кодека : A_AC3
Продолжительность : 1 ч. 56 м.
Вид битрейта : Постоянный
Битрейт : 192 Кбит/сек
Каналы : 2 канала
Расположение каналов : Front: L R
Частота : 48,0 КГц
Битовая глубина : 16 бит
Метод сжатия : С потерями
Размер потока : 160 Мбайт (2%)
Заголовок : AC3 , 2.0, 48KHz , 192 kbps - Многоголосый, СТС
Язык : Russian
Аудио #8
Идентификатор : 9
Формат : DTS
Формат/Информация : Digital Theater Systems
Режим смешивания : Header stripping
Идентификатор кодека : A_DTS
Продолжительность : 1 ч. 56 м.
Вид битрейта : Постоянный
Битрейт : 1510 Кбит/сек
Каналы : 6 каналов
Расположение каналов : Front: L C R, Side: L R, LFE
Частота : 48,0 КГц
Битовая глубина : 24 бит
Метод сжатия : С потерями
Размер потока : 1,23 Гбайт (14%)
Заголовок : DTSHD core5.1 1536k - English original
Язык : English
Текст #1
Идентификатор : 10
Формат : UTF-8
Идентификатор кодека : S_TEXT/UTF8
Идентификатор кодека/Информация : UTF-8 Plain Text
Заголовок : HQCLUB Rus sub BD
Язык : Russian
Текст #2
Идентификатор : 11
Формат : UTF-8
Идентификатор кодека : S_TEXT/UTF8
Идентификатор кодека/Информация : UTF-8 Plain Text
Заголовок : HQCLUB Rus sub Pozdnyakov
Язык : Russian
Текст #3
Идентификатор : 12
Формат : UTF-8
Идентификатор кодека : S_TEXT/UTF8
Идентификатор кодека/Информация : UTF-8 Plain Text
Заголовок : HQCLUB Eng sub BD
Язык : English

Скриншоты




Робокоп 3 / Robocop 3

Робокоп 3 / Robocop 3
Год выпуска: 1993
Страна: США
Жанр: Фантастика, боевик
Продолжительность: 01:44:50
Перевод: Профессиональный (полное дублирование)
Субтитры: нет
Режиссёр: Фред Деккер
В ролях: Роберт Джон Бёрк, Марио Мачадо, Реми Райан, Джоди Лонг, Джон Пози, Рип Торн, Мако, Джон Кастл, С.Д. Немет, Эдит Айви, Кертис Тейлор, Си Си Эйч Паундер, Джадсон Вон, Кен Стронг, Стенли Андерсон, Стивен Рут, Дэниэл фон Барген, Кенни Раскин, Блэйз Корригэн, Джефф Гарлин, Ли Аренберг, Рэнди Рэндольф, Шейн Блэк, Джон Нески, Нэнси Аллен, Рэндолл Тейлор, Роберт Дукуй, Брайан Мерсер, Кенни Джонс, Фелтон Перри, Брэдли Уитфорд, Даг Ясуда, Брюс Лок, Марк Гоуэн, Томас Р. Бойд, Эдди Биллапс, Джилл Хеннесси, Гордон Марк, Энджи Боллинг, Грасиела Марин, Майкл Х. Мосс, Дайан Батлер, Дэвид Де Фриз, Гари Баллок, Вилбур Фицджералд, Бет
Описание: Могущественная корпорация, создавшая знаменитого Робота-полицейского, разрабатывает грандиозный проект по переустройству Детройта. Но его осуществлению препятствуют жители бедных кварталов, для которых не нашлось места в идеальном городе будущего. Бесстрашный Робокоп оказывается между двух враждующих лагерей. Как собственность корпорации, он обязан подчиниться несправедливому приказу. Но как человек, Мёрфи должен встать на защиту повстанцев. Разрываясь между жестоким долгом и голосом сердца, Робот-полицейский попадает в самый эпицентр противостояния. Настало время сделать решающий выбор…
Качество: BDRip [720p]
Формат: MKV
Видео кодек: х264
Аудио кодек: AC3
Видео: 1280х694p (16:9), 23,976 fps, MPEG4 AVC (x264) [url=mailto:High@L4.1]High@L4.1[/url], ~4 439 Kbps avg, 0.208 bits/pixel
Аудио:
Аудио#1: Русский: 48.0 kHz, AC3, 6 ch, ~448 kbps avg [Профессиональный (полное дублирование)]
Аудио#2: Русский: 48.0 kHz, AC3, 6 ch, ~448 kbps avg [Профессиональный (многоголосный закадровый)(Супербит)]
Аудио#3: Русский: 48.0 kHz, AC3, 6 ch, ~448 kbps avg [Профессиональный (Авторский одноголосный)(Живов)]
Аудио#4: Русский: 48.0 kHz, AC3, 6 ch, ~448 kbps avg [Профессиональный (многоголосный закадровый)(НТВ)]
Аудио#5: Русский: 48.0 kHz, AC3, 6 ch, ~192 kbps avg [Профессиональный (многоголосный закадровый)(СТС)]
Аудио#6: Английский: 48.0 kHz, DTS, 6 ch, ~1510 kbps avg [Оригинал]

MediaInfo

Общее
Уникальный идентификатор : 201558761101015063145450434537008268518 (0x97A2CE2BCC4701BABAF5ADEEFCF604E6)
Полное имя : E:\Фильмы
obocop_trilogy\Robocop.3.1993.BluRay.720p.DTS.x264-CHD.mkv
Формат : Matroska
Размер файла : 5,81 Гбайт
Продолжительность : 1 ч. 44 м.
Общий поток : 7928 Кбит/сек
Дата кодирования : UTC 2010-09-26 06:54:44
Программа кодирования : mkvmerge v4.1.1 ('Bouncin' Back') сборка от Jul 3 2010 22:54:08
Библиотека кодирования : libebml v1.0.0 + libmatroska v1.0.0
Видео
Идентификатор : 1
Формат : AVC
Формат/Информация : Advanced Video Codec
Профиль формата : [url=mailto:High@L4.1]High@L4.1[/url]
Параметр CABAC формата : Да
Параметр ReFrames формата : 8 кадров
Идентификатор кодека : V_MPEG4/ISO/AVC
Продолжительность : 1 ч. 44 м.
Битрейт : 4439 Кбит/сек
Ширина : 1280 пикс.
Высота : 694 пикс.
Соотношение сторон : 16:9
Частота кадров : 23,976 кадр/сек
Цветовое пространство : YUV
Подвыборка цветности : 4:2:0
Битовая глубина : 8 бит
Тип развёртки : Прогрессивная
Бит/(Пиксели*Кадры) : 0.208
Размер потока : 3,13 Гбайт (54%)
Заголовок : MPEG4 AVC, 1280x694, 23.976fps
Библиотека кодирования : x264 core 102 r1666 d058f37
Настройки программы : cabac=1 / ref=8 / deblock=1:-3:-3 / analyse=0x3:0x113 / me=umh / subme=9 / psy=1 / psy_rd=1.05:0.00 / mixed_ref=1 / me_range=32 / chroma_me=1 / trellis=2 / 8x8dct=1 / cqm=2 / deadzone=21,11 / fast_pskip=0 / chroma_qp_offset=-1 / threads=6 / sliced_threads=0 / nr=0 / decimate=1 / interlaced=0 / constrained_intra=0 / bframes=6 / b_pyramid=2 / b_adapt=2 / b_bias=0 / direct=3 / weightb=1 / open_gop=0 / weightp=2 / keyint=250 / keyint_min=25 / scenecut=40 / intra_refresh=0 / rc_lookahead=50 / rc=2pass / mbtree=1 / bitrate=4439 / ratetol=1.0 / qcomp=0.60 / qpmin=10 / qpmax=51 / qpstep=4 / cplxblur=20.0 / qblur=0.5 / vbv_maxrate=50000 / vbv_bufsize=50000 / ip_ratio=1.40 / aq=1:1.00 / nal_hrd=none
Язык : English
Аудио #1
Идентификатор : 2
Формат : AC-3
Формат/Информация : Audio Coding 3
Расширение режима : CM (complete main)
Режим смешивания : Header stripping
Идентификатор кодека : A_AC3
Продолжительность : 1 ч. 44 м.
Вид битрейта : Постоянный
Битрейт : 448 Кбит/сек
Каналы : 6 каналов
Расположение каналов : Front: L C R, Side: L R, LFE
Частота : 48,0 КГц
Битовая глубина : 16 бит
Метод сжатия : С потерями
Размер потока : 336 Мбайт (6%)
Заголовок : AC3 , 5.1 , 48Khz , 448 kbps - Дубляж
Язык : Russian
Аудио #2
Идентификатор : 3
Формат : AC-3
Формат/Информация : Audio Coding 3
Расширение режима : CM (complete main)
Режим смешивания : Header stripping
Идентификатор кодека : A_AC3
Продолжительность : 1 ч. 44 м.
Вид битрейта : Постоянный
Битрейт : 448 Кбит/сек
Каналы : 6 каналов
Расположение каналов : Front: L C R, Side: L R, LFE
Частота : 48,0 КГц
Битовая глубина : 16 бит
Метод сжатия : С потерями
Размер потока : 336 Мбайт (6%)
Заголовок : AC3 , 5.1 , 48Khz , 448 kbps - Многоголосый, Киномания (Супербит)
Язык : Russian
Аудио #3
Идентификатор : 4
Формат : AC-3
Формат/Информация : Audio Coding 3
Расширение режима : CM (complete main)
Режим смешивания : Header stripping
Идентификатор кодека : A_AC3
Продолжительность : 1 ч. 44 м.
Вид битрейта : Постоянный
Битрейт : 448 Кбит/сек
Каналы : 6 каналов
Расположение каналов : Front: L C R, Side: L R, LFE
Частота : 48,0 КГц
Битовая глубина : 16 бит
Метод сжатия : С потерями
Размер потока : 336 Мбайт (6%)
Заголовок : AC3 , 5.1 , 48Khz , 448 kbps - Авторский, Живов
Язык : Russian
Аудио #4
Идентификатор : 5
Формат : AC-3
Формат/Информация : Audio Coding 3
Расширение режима : CM (complete main)
Режим смешивания : Header stripping
Идентификатор кодека : A_AC3
Продолжительность : 1 ч. 44 м.
Вид битрейта : Постоянный
Битрейт : 448 Кбит/сек
Каналы : 6 каналов
Расположение каналов : Front: L C R, Side: L R, LFE
Частота : 48,0 КГц
Битовая глубина : 16 бит
Метод сжатия : С потерями
Размер потока : 336 Мбайт (6%)
Заголовок : AC3 , 5.1 , 48Khz , 448 kbps - НТВ
Язык : Russian
Аудио #5
Идентификатор : 6
Формат : AC-3
Формат/Информация : Audio Coding 3
Расширение режима : CM (complete main)
Режим смешивания : Header stripping
Идентификатор кодека : A_AC3
Продолжительность : 1 ч. 44 м.
Вид битрейта : Постоянный
Битрейт : 192 Кбит/сек
Каналы : 2 канала
Расположение каналов : Front: L R
Частота : 48,0 КГц
Битовая глубина : 16 бит
Метод сжатия : С потерями
Размер потока : 144 Мбайт (2%)
Заголовок : AC3 , 5.1 , 48Khz , 448 kbps - СТС
Язык : Russian
Аудио #6
Идентификатор : 7
Формат : DTS
Формат/Информация : Digital Theater Systems
Режим смешивания : Header stripping
Идентификатор кодека : A_DTS
Продолжительность : 1 ч. 44 м.
Вид битрейта : Постоянный
Битрейт : 1510 Кбит/сек
Каналы : 6 каналов
Расположение каналов : Front: L C R, Side: L R, LFE
Частота : 48,0 КГц
Битовая глубина : 24 бит
Метод сжатия : С потерями
Размер потока : 1,11 Гбайт (19%)
Заголовок : DTSHD core5.1 1536k - Original
Язык : English
Текст #1
Идентификатор : 8
Формат : UTF-8
Идентификатор кодека : S_TEXT/UTF8
Идентификатор кодека/Информация : UTF-8 Plain Text
Заголовок : HQCLUB Rus sub BD
Язык : Russian
Текст #2
Идентификатор : 9
Формат : UTF-8
Идентификатор кодека : S_TEXT/UTF8
Идентификатор кодека/Информация : UTF-8 Plain Text
Заголовок : HQCLUB Eng sub BD
Язык : English

Скриншоты




-Источник:

_________________
Показать сообщения:    

Текущее время: Сегодня 15:55

Часовой пояс: GMT



Вы не можете начинать темы
Вы не можете отвечать на сообщения
Вы не можете редактировать свои сообщения
Вы не можете удалять свои сообщения
Вы не можете голосовать в опросах
Вы не можете прикреплять файлы к сообщениям
Вы не можете скачивать файлы
Наши партнеры: интернет магазин Ивановского трикотажа textilla.ru