Ивановский Торрент трекер
Яндекс.Погода
 

[Цитировать]
HUNTER

Робин и 7 гангстеров / Robin and the 7 Hoods
-Страна: США
Жанр: Комедия, Криминал, Музыкальный
Год выпуска: 1964
Продолжительность: 02:03:06-Перевод 1: Профессиональный (многоголосый закадровый)
Перевод 2: Авторский (одноголосый закадровый) Визгунов-Cубтитры: английские, русские (на песни )
Оригинальная аудиодорожка: английский-Режиссер: Гордон Дуглас / Gordon Douglas-В ролях: Фрэнк Синатра, Дин Мартин, Сэмми Дэвис мл., Бинг Кросби, Питер Фальк, Барбара Раш, Виктор Буоно, Хэнк Генри, Роберт Фолк, Аллен Дженкинс, Джек Ла Рю, Роберт Каррикарт-Описание:
Чикаго, времена "сухого закона". Убит "крестный отец" мафии - Большой Джим. Самым главным среди гангстеров становится Гай Гисборн, ранее контролировавший южную часть города. Но Роббо, под контролем которого северная часть, против того, чтобы Гай имел над ним власть. Роббо поддерживают игрок в бильярд из Индианы и директор местного приюта для мальчиков-сирот. А когда Роббо дает деньги для приюта, о нем разносится слава, как о новом Робине Гуде. Однако, такая "популярность" совсем не нравится Гаю, и он решает избавиться от Роббо...-Сэмпл: Скачать-Тип релиза: BDRemux 1080p
Контейнер: MKV-Видео: 1920x1080 (16:9); 19944 kbps; 23.976 fps;
Аудио 1: Russian; AC3; 48.0 KHz; 2ch; 192 Kbps
Аудио 2: Russian; AC3; 48.0 KHz; 2ch; 192 Kbps
Аудио 3: English; FLAC; 48.0 KHz; 1ch; 643 Kbps

MediaInfo

Format : Matroska
Format version : Version 4 / Version 2
File size : 18.0 GiB
Duration : 2h 3mn
Overall bit rate mode : Variable
Overall bit rate : 21.0 Mbps
Encoded date : UTC 2015-10-23 10:05:43
Writing application : mkvmerge v8.3.0 ('Over the Horizon') 64bit
Writing library : libebml v1.3.1 + libmatroska v1.4.2
Attachements : poster.jpg
DURATION : 02:03:06.389000000
NUMBER_OF_FRAMES : 86560
NUMBER_OF_BYTES : 605475956
_STATISTICS_WRITING_APP : mkvmerge v8.3.0 ('Over the Horizon') 64bit
_STATISTICS_WRITING_DATE_UT : 2015-10-23 10:05:43
_STATISTICS_TAGS : BPS DURATION NUMBER_OF_FRAMES NUMBER_OF_BYTES
Video
ID : 1
Format : AVC
Format/Info : Advanced Video Codec
Format profile : High@L4.1
Format settings, CABAC : Yes
Format settings, ReFrames : 2 frames
Format settings, GOP : M=1, N=10
Codec ID : V_MPEG4/ISO/AVC
Duration : 2h 3mn
Bit rate mode : Variable
Width : 1 920 pixels
Height : 1 080 pixels
Display aspect ratio : 16:9
Frame rate mode : Constant
Frame rate : 23.976 fps
Color space : YUV
Chroma subsampling : 4:2:0
Bit depth : 8 bits
Scan type : Progressive
Default : Yes
Forced : No
Audio #1
ID : 2
Format : AC-3
Format/Info : Audio Coding 3
Mode extension : CM (complete main)
Format settings, Endianness : Big
Codec ID : A_AC3
Duration : 2h 3mn
Bit rate mode : Constant
Bit rate : 192 Kbps
Channel(s) : 2 channels
Channel positions : Front: L R
Sampling rate : 48.0 KHz
Compression mode : Lossy
Stream size : 169 MiB (1%)
Title : MVO
Language : Russian
Default : Yes
Forced : No
Audio #2
ID : 3
Format : AC-3
Format/Info : Audio Coding 3
Mode extension : CM (complete main)
Format settings, Endianness : Big
Codec ID : A_AC3
Duration : 2h 3mn
Bit rate mode : Constant
Bit rate : 192 Kbps
Channel(s) : 2 channels
Channel positions : Front: L R
Sampling rate : 48.0 KHz
Compression mode : Lossy
Stream size : 169 MiB (1%)
Title : AVO Визгунов
Language : Russian
Default : No
Forced : No
Audio #3
ID : 4
Format : FLAC
Format/Info : Free Lossless Audio Codec
Codec ID : A_FLAC
Duration : 2h 3mn
Bit rate mode : Variable
Channel(s) : 1 channel
Sampling rate : 48.0 KHz
Bit depth : 24 bits
Writing library : libFLAC 1.3.0 (UTC 2013-05-26)
Language : English
Default : No
Forced : No
Text #1
ID : 5
Format : UTF-8
Codec ID : S_TEXT/UTF8
Codec ID/Info : UTF-8 Plain Text
Language : Russian
Default : Yes
Forced : No
Text #2
ID : 6
Format : UTF-8
Codec ID : S_TEXT/UTF8
Codec ID/Info : UTF-8 Plain Text
Language : English
Default : No
Forced : No
Menu
00:00:00.000 : en:00:00:00.000
00:02:09.129 : en:00:02:09.129
00:04:50.165 : en:00:04:50.165
00:08:25.004 : en:00:08:25.004
00:09:56.262 : en:00:09:56.262
00:12:06.351 : en:00:12:06.351
00:15:54.412 : en:00:15:54.412
00:18:48.878 : en:00:18:48.878
00:20:56.714 : en:00:20:56.714
00:23:23.110 : en:00:23:23.110
00:25:40.622 : en:00:25:40.622
00:29:51.164 : en:00:29:51.164
00:34:57.053 : en:00:34:57.053
00:38:17.545 : en:00:38:17.545
00:43:05.917 : en:00:43:05.917
00:47:25.760 : en:00:47:25.760
00:51:01.517 : en:00:51:01.517
00:53:47.683 : en:00:53:47.683
00:57:52.552 : en:00:57:52.552
01:03:24.092 : en:01:03:24.092
01:06:17.640 : en:01:06:17.640
01:11:58.564 : en:01:11:58.564
01:13:16.017 : en:01:13:16.017
01:15:53.591 : en:01:15:53.591
01:19:17.002 : en:01:19:17.002
01:26:12.417 : en:01:26:12.417
01:28:10.869 : en:01:28:10.869
01:31:45.208 : en:01:31:45.208
01:36:13.893 : en:01:36:13.893
01:39:11.320 : en:01:39:11.320
01:41:04.350 : en:01:41:04.350
01:44:06.699 : en:01:44:06.699
01:46:08.862 : en:01:46:08.862
01:48:51.150 : en:01:48:51.150
01:53:51.700 : en:01:53:51.700
01:56:35.572 : en:01:56:35.572
02:00:00.944 : en:02:00:00.944
02:01:42.462 : en:02:01:42.462

Скриншоты

Показать сообщения:    

Текущее время: 24-Сен 23:51

Часовой пояс: UTC - 1


Вы не можете начинать темы
Вы не можете отвечать на сообщения
Вы не можете редактировать свои сообщения
Вы не можете удалять свои сообщения
Вы не можете голосовать в опросах
Вы не можете прикреплять файлы к сообщениям
Вы не можете скачивать файлы

!ВНИМАНИЕ!
Сайт не предоставляет электронные версии произведений, а занимается лишь коллекционированием и каталогизацией ссылок, присылаемых и публикуемых на форуме нашими читателями. Если вы являетесь правообладателем какого-либо представленного материала и не желаете, чтобы ссылка на него находилась в нашем каталоге, свяжитесь с нами, и мы незамедлительно удалим ее. Файлы для обмена на трекере предоставлены пользователями сайта, и администрация не несет ответственности за их содержание. Просьба не заливать файлы, защищенные авторскими правами, а также файлы нелегального содержания!