Робин Гуд / Robin Hood (Вольфганг Райтерман / Wolfgang Reitherman) [1973, США, мультфильм, мелодрама, комедия, семейный, HDDVDRip] Dub (Пифагор) :: Ивановский Торрент трекер
Важное объявление!
У Нас Все раздачи мультитрекерные, при нуле пиров в релизах, можете смело вставать на закачку!
Статистика раздачи
Размер:     |    Зарегистрирован:     |    Скачан:     |   
Нет
 
     
 
 
Автор Сообщение

HUNTER

Стаж:
4 года 11 месяцев
Сообщений:
66066

Репутация: 101

[+] [-]
Вне форума [Профиль] [ЛС]

Робин Гуд / Robin Hood-
Страна: США
Жанр: мультфильм, мелодрама, комедия, семейный
Год выпуска: 1973
Продолжительность: 01:23:01
-Перевод: Профессиональный (полное дублирование) «Пифагор»
Cубтитры: нет
Оригинальная аудиодорожка: нет
Автор рипа: anton210896
-Режиссер: Вольфганг Райтерман / Wolfgang Reitherman-В ролях: Роджер Миллер, Питер Устинов, Терри-Томас, Брайан Бедфорд, Моника Эванс, Фил Харрис, Энди Дивайн, Кэрол Шелли, Пэт Баттрем, Джордж Линдси-Описание: Добро пожаловать в дремучий Шервудский лес, где ты встретишь храброго и забавного лисенка по имени Робин Гуд и его лучшего друга Крошку Джона — большого добродушного медведя.
Эту веселую компанию давно разыскивает шериф Нотингема. Он готовит друзьям ловушку: на турнире лучников Робин Гуда будет ждать засада. Но отважный лисенок все равно собирается участвовать в состязании: ведь только там у него есть шанс увидеть красавицу Мариан.
И вот турнир начался, однако шериф никак не может узнать среди участников переодетого Робин Гуда. Правда, один точный выстрел способен сразу выдать самого лучшего стрелка в королевстве.
-Сэмпл: https://yadi.sk/i/iTpx_tZ1dVLpX-Качество видео: HDDVDRip
Формат видео: AVI
Видео: 640x368 (1.74:1), 23.976 fps, XviD MPEG-4 ~1061 kbps avg, 0.19 bit/pixel
Аудио: 48 kHz, AC3 Dolby Digital, 2/0 (L,R) ch, ~192 kbps / Профессиональный (полное дублирование) «Пифагор»
-

MediaInfo

General
Complete name : C:\Users\Администратор\Desktop\Robin.Hood.1973.D.HDDVDRip.XviD.AC3.DUB.700MB.avi
Format : AVI
Format/Info : Audio Video Interleave
File size : 750 MiB
Duration : 1h 23mn
Overall bit rate : 1 263 Kbps
Movie name : Робин Гуд (1973) / HDDVDRip by anton210896
Director : anton210896
Writing application : VirtualDubModRus 1.5.10.2 (build 2542/release)
Writing library : VirtualDubMod build 2542/release
Copyright : anton210896
Comment : 19.12.2014
Video
ID : 0
Format : MPEG-4 Visual
Format profile : Advanced Simple@L5
Format settings, BVOP : 2
Format settings, QPel : No
Format settings, GMC : No warppoints
Format settings, Matrix : Default (H.263)
Codec ID : XVID
Codec ID/Hint : XviD
Duration : 1h 23mn
Bit rate : 1 061 Kbps
Width : 640 pixels
Height : 368 pixels
Display aspect ratio : 1.667
Original display aspect rat : 1.739
Frame rate : 23.976 fps
Color space : YUV
Chroma subsampling : 4:2:0
Bit depth : 8 bits
Scan type : Progressive
Compression mode : Lossy
Bits/(Pixel*Frame) : 0.188
Stream size : 630 MiB (84%)
Writing library : XviD 64
Audio
ID : 1
Format : AC-3
Format/Info : Audio Coding 3
Mode extension : CM (complete main)
Format settings, Endianness : Big
Codec ID : 2000
Duration : 1h 23mn
Bit rate mode : Constant
Bit rate : 192 Kbps
Channel(s) : 2 channels
Channel positions : Front: L R
Sampling rate : 48.0 KHz
Bit depth : 16 bits
Compression mode : Lossy
Stream size : 114 MiB (15%)
Alignment : Split accross interleaves
Interleave, duration : 42 ms (1.00 video frame)
Interleave, preload duratio : 500 ms

Скриншот c названием фильма

Скриншоты


_________________
Показать сообщения:    

Текущее время: Сегодня 15:46

Часовой пояс: GMT



Вы не можете начинать темы
Вы не можете отвечать на сообщения
Вы не можете редактировать свои сообщения
Вы не можете удалять свои сообщения
Вы не можете голосовать в опросах
Вы не можете прикреплять файлы к сообщениям
Вы не можете скачивать файлы