Ивановский Торрент трекер
Яндекс.Погода
 

[Цитировать]
HUNTER

Робин Гуд / Robin Hood- Год выпуска: 1973
Выпущено: США
Жанр: мелодрама, комедия, приключения, семейный
Продолжительность: 01:23:01
Перевод: Профессиональный (полное дублирование)
Русские субтитры: есть-Режиссер: Вольфганг Райтерман / Wolfgang Reitherman
Роли озвучивали: Роджер Миллер, Питер Устинов, Терри-Томас, Брайан Бедфорд, Моника Эванс, Фил Харрис, Энди Дивайн, Кэрол Шелли, Пэт Баттрем, Джордж Линдси
О фильме: Добро пожаловать в дремучий Шервудский лес, где ты встретишь храброго и забавного лисенка по имени Робин Гуд и его лучшего друга Крошку Джона — большого добродушного медведя.
Эту веселую компанию давно разыскивает шериф Нотингема. Он готовит друзьям ловушку: на турнире лучников Робин Гуда будет ждать засада. Но отважный лисенок все равно собирается участвовать в состязании: ведь только там у него есть шанс увидеть красавицу Мариан.
И вот турнир начался, однако шериф никак не может узнать среди участников переодетого Робин Гуда. Правда, один точный выстрел способен сразу выдать самого лучшего стрелка в королевстве.-Релиз:
Автор: kingsize87
Семпл: Скачать
Качество: BDRip (источник: HDClub / Blu-ray (40th Anniversary Edition) / 1080p)
Формат: AVI
Видео: 720x432 (1.67:1), 23,976 fps, XviD build 65 ~1853 kbps avg, 0.25 bit/pixel
Аудио #1: 48 kHz, AC3 Dolby Digital, 2/0 (L,R) + LFE ch, ~192.00 kbps avg rus
Аудио #2: 48 kHz, AC3 Dolby Digital, 3/2 (L,C,R,l,r) + LFE ch, ~448.00 kbps avg eng
Субтитры: Русские (песни, надписи, полные), Английские (песни, песни SDH, полные, SDH) (внешние srt*) (спасибо irrlicht)-

Кадры из фильма


-

Mi

Формат : AVI
Формат/Информация : Audio Video Interleave
Размер файла : 1,46 Гбайт
Продолжительность : 1 ч. 23 м.
Общий поток : 2509 Кбит/сек
Название фильма : Робин Гуд / Robin Hood (1973) BDRip
Режиссёр : kingsize87
Программа кодирования : VirtualDubMod 1.5.10.2 (build 2540/release)
Правообладатель : HQCLUB
Примечание : 06.12.2014
Видео
Идентификатор : 0
Формат : MPEG-4 Visual
Профиль формата : Advanced Simple@L5
Параметр BVOP формата : 1
Параметр QPel формата : Нет
Параметр GMC формата : Без точки перехода
Параметр матрицы формата : Выборочная
Идентификатор кодека : XVID
Идентификатор кодека/Подсказка : XviD
Продолжительность : 1 ч. 23 м.
Битрейт : 1855 Кбит/сек
Ширина : 720 пикселей
Высота : 432 пикселя
Соотношение сторон : 1,667
Частота кадров : 23,976 кадра/сек
Цветовое пространство : YUV
Субдискретизация насыщенности : 4:2:0
Битовая глубина : 8 бит
Тип развёртки : Прогрессивная
Метод сжатия : С потерями
Бит/(Пиксели*Кадры) : 0.249
Размер потока : 1,08 Гбайт (74%)
Библиотека кодирования : XviD 65
Аудио #1
Идентификатор : 1
Формат : AC-3
Формат/Информация : Audio Coding 3
Расширение режима : CM (complete main)
Параметр Endianness формата : Big
Идентификатор кодека : 2000
Продолжительность : 1 ч. 23 м.
Вид битрейта : Постоянный
Битрейт : 192 Кбит/сек
Каналы : 2 канала
Расположение каналов : Front: L R
Частота : 48,0 КГц
Битовая глубина : 16 бит
Метод сжатия : С потерями
Размер потока : 114 Мбайт (8%)
Выравнивание : Разделение по промежуткам
Продолжительность промежутка : 42 мс. (1,00 видеокадр)
Время предзагрузки промежутка : 500 мс.
Аудио #2
Идентификатор : 2
Формат : AC-3
Формат/Информация : Audio Coding 3
Расширение режима : CM (complete main)
Параметр Endianness формата : Big
Идентификатор кодека : 2000
Продолжительность : 1 ч. 23 м.
Вид битрейта : Постоянный
Битрейт : 448 Кбит/сек
Каналы : 6 каналов
Расположение каналов : Front: L C R, Side: L R, LFE
Частота : 48,0 КГц
Битовая глубина : 16 бит
Метод сжатия : С потерями
Размер потока : 266 Мбайт (18%)
Выравнивание : Разделение по промежуткам
Продолжительность промежутка : 42 мс. (1,00 видеокадр)
Время предзагрузки промежутка : 500 мс.

-
Цитата:
* При использовании субтитров прошу ссылаться на первоисточник.


Показать сообщения:    

Текущее время: 17-Дек 10:13

Часовой пояс: UTC ± 0


Вы не можете начинать темы
Вы не можете отвечать на сообщения
Вы не можете редактировать свои сообщения
Вы не можете удалять свои сообщения
Вы не можете голосовать в опросах
Вы не можете прикреплять файлы к сообщениям
Вы не можете скачивать файлы

!ВНИМАНИЕ!
Сайт не предоставляет электронные версии произведений, а занимается лишь коллекционированием и каталогизацией ссылок, присылаемых и публикуемых на форуме нашими читателями. Если вы являетесь правообладателем какого-либо представленного материала и не желаете, чтобы ссылка на него находилась в нашем каталоге, свяжитесь с нами, и мы незамедлительно удалим ее. Файлы для обмена на трекере предоставлены пользователями сайта, и администрация не несет ответственности за их содержание. Просьба не заливать файлы, защищенные авторскими правами, а также файлы нелегального содержания!