Важное объявление!
У Нас Все раздачи мультитрекерные, при нуле пиров в релизах, можете смело вставать на закачку!
 
Автор Сообщение

HUNTER

Стаж:
4 года 8 месяцев
Сообщений:
61998

Репутация: 101

[+] [-]
Вне форума [Профиль] [ЛС]

Робинзон Крузо: Очень обитаемый остров : Robinson Crusoe«Однажды на берег очень даже обитаемого острова...»
Год выпуска: 2016
Страна: США
Жанр: мультфильм, комедия, приключения
Продолжительность: 01:30:23
Перевод: Профессиональный (Дублированный) - iTunes
субтитры: отсутствуют-Режиссёр: Винсент Кестелут : Vincent Kesteloot, Бен Стассен : Ben Stassen-Роли озвучивали: Рон Аллен, Джордж Бэббит, Лайла Берзиньш, Илька Бессин, Джои Камен, Джефф Дусетте, Сэнди Фокс, Дитер Халлерворден, Кайл Херберт
Роли дублировали: Сергей Чихачев, Пётр Иващенко-Описание: Все знают историю о Робинзоне Крузо, попавшем на необитаемый остров. Однако, как же можно назвать его необитаемым, если он населен разнообразными веселыми животными и птицами? Они очень удивились, впервые встретив это странное существо, и даже приняли его за морское чудовище. Попугаю по кличке Вторник и его друзьям — хамелеону, тапиру и другим обитателям острова предстоит поближе познакомиться с незнакомым зверем «человеком» и вместе с ним пережить массу опасных и веселых приключений.- раздача от: -Качество: WEB-DL 720p
Формат: MKV
Видео кодек: AVC
Аудио кодек: AC3
Видео: 1280x536, 24 fps, ~3830 kbps avg, 0.233 bit/pixel
Аудио: [RUS] 48 kHz, AC3 Dolby Digital, 3/2 (L,C,R,l,r) + LFE ch, ~384 kbps
навигация по главам: 15 глав (не именные)

MediaInfo

Общее
Уникальный идентификатор : 195070325921631155002271354345590351191 (0x92C12D9E36759C92BA6540B1C9D3E557)
Полное имя : D:\Robinson Crusoe.2016.WEB-DL 720p.mkv
Формат : Matroska
Версия формата : Version 4 / Version 2
Размер файла : 2,71 Гбайт
Продолжительность : 1 ч. 30 м.
Общий поток : 4299 Кбит/сек
Дата кодирования : UTC 2016-07-19 19:07:51
Программа кодирования : mkvmerge v7.1.0 ('Good Love') 32bit built on Jul 27 2014 12:59:18
Библиотека кодирования : libebml v1.3.0 + libmatroska v1.4.1
DURATION : 01:30:23.232000000
NUMBER_OF_FRAMES : 169476
NUMBER_OF_BYTES : 260315136
_STATISTICS_WRITING_APP : mkvmerge v7.1.0 ('Good Love') 32bit built on Jul 27 2014 12:59:18
_STATISTICS_WRITING_DATE_UTC : 2016-07-19 19:07:51
_STATISTICS_TAGS : BPS DURATION NUMBER_OF_FRAMES NUMBER_OF_BYTES
Видео
Идентификатор : 1
Формат : AVC
Формат/Информация : Advanced Video Codec
Профиль формата : Main@L3.1
Параметр CABAC формата : Нет
Параметр ReFrames формата : 2 кадра
Идентификатор кодека : V_MPEG4/ISO/AVC
Продолжительность : 1 ч. 30 м.
Битрейт : 3830 Кбит/сек
Ширина : 1280 пикселей
Высота : 536 пикселей
Соотношение сторон : 2,40:1
Режим частоты кадров : Постоянный
Частота кадров : 24,000 кадра/сек
Цветовое пространство : YUV
Субдискретизация насыщенности : 4:2:0
Битовая глубина : 8 бит
Тип развёртки : Прогрессивная
Бит/(Пиксели*Кадры) : 0.233
Размер потока : 2,42 Гбайт (89%)
Язык : English
Default : Да
Forced : Нет
Цветовой диапазон : Limited
Основные цвета : BT.709
Характеристики трансфера : BT.709
Коэффициенты матрицы : BT.709
Аудио
Идентификатор : 2
Формат : AC-3
Формат/Информация : Audio Coding 3
Расширение режима : CM (complete main)
Параметр Endianness формата : Big
Идентификатор кодека : A_AC3
Продолжительность : 1 ч. 30 м.
Вид битрейта : Постоянный
Битрейт : 384 Кбит/сек
Каналы : 6 каналов
Расположение каналов : Front: L C R, Side: L R, LFE
Частота : 48,0 КГц
Метод сжатия : С потерями
Размер потока : 248 Мбайт (9%)
Язык : Russian
Default : Да
Forced : Нет
Меню
00:00:00.000 : en:1
00:05:18.041 : en:2
00:11:16.832 : en:3
00:17:07.832 : en:4
00:23:10.040 : en:5
00:28:55.081 : en:6
00:35:05.247 : en:7
00:40:42.997 : en:8
00:46:33.247 : en:9
00:52:50.663 : en:10
00:59:08.288 : en:11
01:04:25.829 : en:12
01:09:32.537 : en:13
01:15:14.537 : en:14
01:21:30.078 : en:15

_________________
Показать сообщения:    

Текущее время: Сегодня 21:37

Часовой пояс: GMT



Вы не можете начинать темы
Вы не можете отвечать на сообщения
Вы не можете редактировать свои сообщения
Вы не можете удалять свои сообщения
Вы не можете голосовать в опросах
Вы не можете прикреплять файлы к сообщениям
Вы не можете скачивать файлы
Наши партнеры: интернет магазин Ивановского трикотажа textilla.ru