Важное объявление!
У Нас Все раздачи мультитрекерные, при нуле пиров в релизах, можете смело вставать на закачку!
 
Автор Сообщение

HUNTER

Стаж:
4 года 6 месяцев
Сообщений:
60959

Репутация: 101

[+] [-]
Вне форума [Профиль] [ЛС]

Ричард Третий / Richard III
-Страна: США
Жанр:драма, исторический
Год выпуска: 1955
Продолжительность: 02:38:48-Перевод: Профессиональный (двухголосый закадровый)-Cубтитры: русские, английские
Оригинальная аудиодорожка: английский-Режиссер: Лоуренс Оливье / Laurence Olivier-В ролях: Лоуренс Оливье, Джон Гилгуд, Ралф (Сэр) Ричардсон, Клер Блум, Седрик Хардуик, Майкл Гоф, Стэнли Бэйкер, Памела Браун, Алек Клунс, Мэри Керридж-Описание: Младший брат Ричард (Оливье) короля Эдуарда IV (Хардуик), чью коронацию он с завистью наблюдал, начинает интриги с целью злодейского захвата трона - убивает брата (герцога Кларенса), жену, племянников - наследников Эдуарда, соблазняет леди Анну. Когда, подорваны основы нормальной государственной жизни, царит хаос, успех выпадает на долю сильного, ловкого, бессовестного. "Кулак - нам совесть, и закон - нам меч!" - провозглашает Ричард. Он многогранен и многолик. Назначенный протектором королевства при малолетнем Эдуарде V (сыне Эдуарда IV), а затем королем, он низложил его, заключил в Тауэр. В битве при Босворте (1485г.) потерпел поражение и был убил. Ричард всех оттолкнул от себя, но в последний момент в нем вспыхивает пламя прежней страсти, и он кидается в бой, но... уже не за власть, не за престол, а за свою гордость. "Коня, коня! Венец мой за коня!" - последний возглас Ричарда, погибшего несломленным.-Сэмпл: Скачать-Тип релиза: BDRip 720p
Контейнер: MKV-Видео: 1200x720 (1.667); 5175 Kbps; 23.976 fps; 0.250 bpp
Аудио 1: Russian; AC3; 48.0 KHz; 1ch; 192 Kbps
Аудио 2: English; FLAC; 48.0 KHz; 1ch; 546 Kbps
Аудио 3: English; AC3; 48.0 KHz; 1ch; 192 Kbps Commentary

x264

x264 [info]: frame I:1135 Avg QP:15.49 size:130883
x264 [info]: frame P:43151 Avg QP:18.71 size: 47566
x264 [info]: frame B:184194 Avg QP:20.89 size: 21521

MediaInfo

Format : Matroska
Format version : Version 2
File size : 6.78 GiB
Duration : 2h 38mn
Overall bit rate mode : Variable
Overall bit rate : 6 108 Kbps
Encoded date : UTC 2013-06-26 21:19:24
Writing application : mkvmerge v5.0.1 ('Es ist Sommer') built on Oct 9 2011 11:55:43
Writing library : libebml v1.2.2 + libmatroska v1.3.0
Video
ID : 1
Format : AVC
Format/Info : Advanced Video Codec
Format profile : High@L4.0
Format settings, CABAC : Yes
Format settings, ReFrames : 9 frames
Codec ID : V_MPEG4/ISO/AVC
Duration : 2h 38mn
Nominal bit rate : 5 175 Kbps
Width : 1 200 pixels
Height : 720 pixels
Display aspect ratio : 1.667
Frame rate mode : Constant
Frame rate : 23.976 fps
Color space : YUV
Chroma subsampling : 4:2:0
Bit depth : 8 bits
Scan type : Progressive
Bits/(Pixel*Frame) : 0.250
Writing library : x264 core 133 r2334 a3ac64b
Encoding settings : cabac=1 / ref=9 / deblock=1:-1:-1 / analyse=0x3:0x133 / me=umh / subme=11 / psy=1 / psy_rd=1.00:0.00 / mixed_ref=1 / me_range=32 / chroma_me=1 / trellis=2 / 8x8dct=1 / cqm=0 / deadzone=21,11 / fast_pskip=0 / chroma_qp_offset=-2 / threads=6 / lookahead_threads=1 / sliced_threads=0 / nr=0 / decimate=1 / interlaced=0 / bluray_compat=0 / constrained_intra=0 / bframes=8 / b_pyramid=2 / b_adapt=2 / b_bias=0 / direct=3 / weightb=1 / open_gop=0 / weightp=2 / keyint=240 / keyint_min=23 / scenecut=40 / intra_refresh=0 / rc_lookahead=60 / rc=2pass / mbtree=1 / bitrate=5175 / ratetol=1.0 / qcomp=0.70 / qpmin=0 / qpmax=69 / qpstep=4 / cplxblur=20.0 / qblur=0.5 / ip_ratio=1.40 / aq=1:1.00
Language : English
Default : Yes
Forced : No
Audio #1
ID : 2
Format : AC-3
Format/Info : Audio Coding 3
Mode extension : CM (complete main)
Format settings, Endianness : Big
Codec ID : A_AC3
Duration : 2h 38mn
Bit rate mode : Constant
Bit rate : 192 Kbps
Channel(s) : 1 channel
Channel positions : Front: C
Sampling rate : 48.0 KHz
Bit depth : 16 bits
Compression mode : Lossy
Stream size : 218 MiB (3%)
Language : Russian
Default : Yes
Forced : No
Audio #2
ID : 3
Format : FLAC
Format/Info : Free Lossless Audio Codec
Codec ID : A_FLAC
Duration : 2h 38mn
Bit rate mode : Variable
Channel(s) : 1 channel
Sampling rate : 48.0 KHz
Bit depth : 24 bits
Writing library : libFLAC 1.3.0 (UTC 2013-05-26)
Language : English
Default : No
Forced : No
Audio #3
ID : 4
Format : AC-3
Format/Info : Audio Coding 3
Mode extension : CM (complete main)
Format settings, Endianness : Big
Codec ID : A_AC3
Duration : 2h 38mn
Bit rate mode : Constant
Bit rate : 192 Kbps
Channel(s) : 1 channel
Channel positions : Front: C
Sampling rate : 48.0 KHz
Bit depth : 16 bits
Compression mode : Lossy
Stream size : 218 MiB (3%)
Title : Commentary
Language : English
Default : No
Forced : No
Text #1
ID : 5
Format : UTF-8
Codec ID : S_TEXT/UTF8
Codec ID/Info : UTF-8 Plain Text
Language : English
Default : No
Forced : No
Text #2
ID : 6
Format : UTF-8
Codec ID : S_TEXT/UTF8
Codec ID/Info : UTF-8 Plain Text
Language : Russian
Default : No
Forced : No
Menu
00:00:00.000 : en:00:00:00.000
00:03:08.647 : en:00:03:08.647
00:08:38.268 : en:00:08:38.268
00:13:49.412 : en:00:13:49.412
00:21:04.472 : en:00:21:04.472
00:26:20.370 : en:00:26:20.370
00:33:41.269 : en:00:33:41.269
00:36:16.091 : en:00:36:16.091
00:45:10.291 : en:00:45:10.291
00:49:41.562 : en:00:49:41.562
00:53:32.751 : en:00:53:32.751
00:56:30.596 : en:00:56:30.596
01:04:16.144 : en:01:04:16.144
01:08:59.010 : en:01:08:59.010
01:16:10.024 : en:01:16:10.024
01:19:11.580 : en:01:19:11.580
01:27:55.979 : en:01:27:55.979
01:36:05.051 : en:01:36:05.051
01:38:05.880 : en:01:38:05.880
01:40:28.231 : en:01:40:28.231
01:47:20.517 : en:01:47:20.517
01:51:15.752 : en:01:51:15.752
01:54:21.563 : en:01:54:21.563
02:02:24.587 : en:02:02:24.587
02:04:56.072 : en:02:04:56.072
02:05:28.438 : en:02:05:28.438
02:10:09.135 : en:02:10:09.135
02:15:27.494 : en:02:15:27.494
02:19:06.213 : en:02:19:06.213
02:24:21.361 : en:02:24:21.361
02:31:43.845 : en:02:31:43.845
02:34:38.978 : en:02:34:38.978

Скриншоты


_________________
Показать сообщения:    

Текущее время: Сегодня 14:39

Часовой пояс: GMT



Вы не можете начинать темы
Вы не можете отвечать на сообщения
Вы не можете редактировать свои сообщения
Вы не можете удалять свои сообщения
Вы не можете голосовать в опросах
Вы не можете прикреплять файлы к сообщениям
Вы не можете скачивать файлы
Наши партнеры: интернет магазин Ивановского трикотажа textilla.ru