Ивановский Торрент трекер
Яндекс.Погода
 

[Цитировать]
HUNTER

Риф 3D / The Reef 2: High Tide
-Информация:
Год выхода: 2012
Страна: Корея Южная, США / Animation Picture Company, Wonderworld Studios
Жанр: Мультфильм, Мюзикл, Семейный
Продолжительность: 01:20:19
Перевод: Профессиональный (дублированный) [Лицензия]
Режиссёр: Малкольм Д. Ли
В ролях: Дрейк Белл, Энди Дик, Фрэн Дрешер, Фрэнки Джонас, Джейми Кеннеди, Донал Лог, Бизи Филиппс, Роб Шнайдер, Стефен Стэнтон, Мэттью Уиллиг и др.
Роли дублировали: Никита Пресняков, Антон Богданов, Дина Гарипова, Владимир Рыбальченко-Описание:
Пай живет на прекрасном коралловом Рифе, а по соседству обитают сотни злобных акул. Пай — единственный на Рифе, кто уверен, рано или поздно акулы атакуют и нужно быть готовым за себя постоять. Жители Рифа всегда мирно соседствовали с акулами и не планируют ни с кем воевать. Пай пытается организовать занятия по самообороне, но на них никто не приходит, и ему приходится изучать боевые искусства одному, под руководством мудрого черепаха Нерисса.
Однажды в городе появляется веселый Ронни, который увлекает местных жителей в подготовку к водному празднику в жанре представлений Cirque De Soleil. Жители Рифа очарованы Ронни! Но никто не догадывается, что Ронни прислали акулы: его задача усыпить бдительность жителей и захватить Риф…-Тех.Данные:
Качество: BDRip 1080p |BDRemux 1080p | Автор рипа: XLASER
Формат: MKV
Видео кодек: AVC
Аудио кодек: AC-3
Видео: AVC at 11,2 Мбит/сек 1920 x 1040 (1.846) at 23.976 fps
Аудио: AC-3 at 640 Кбит/сек 6 каналов, 48,0 КГц

MediaInfo

Код: copyText_writeLink('this.parentNode.parentNode.nextSibling.nextSibling'); Формат : Matroska
Версия формата : Version 2
Размер файла : 6,76 Гбайт
Продолжительность : 1 ч. 20 м.
Общий поток : 12,1 Мбит/сек
Дата кодирования : UTC 2013-09-22 07:43:15
Программа кодирования : mkvmerge v2.9.8 ('C'est le bon') built on Nov 20 2009 13:01:15
Библиотека кодирования : libebml v0.7.9 + libmatroska v0.8.1
Видео
Идентификатор : 1
Формат : AVC
Формат/Информация : Advanced Video Codec
Профиль формата : [url=mailto:High@L4.0]High@L4.0[/url]
Параметр CABAC формата : Да
Параметр ReFrames формата : 3 кадра
Идентификатор кодека : V_MPEG4/ISO/AVC
Продолжительность : 1 ч. 20 м.
Битрейт : 11,2 Мбит/сек
Номинальный битрейт : 11,7 Мбит/сек
Ширина : 1920 пикселей
Высота : 1040 пикселей
Соотношение сторон : 1,85:1
Режим частоты кадров : Постоянный
Частота кадров : 23,976 кадра/сек
Цветовое пространство : YUV
Субдискретизация насыщенности : 4:2:0
Битовая глубина : 8 бит
Тип развёртки : Прогрессивная
Бит/(Пиксели*Кадры) : 0.233
Размер потока : 6,27 Гбайт (93%)
Библиотека кодирования : x264 core 79 r1342kMod e8501ef
Настройки программы : cabac=1 / ref=3 / deblock=0:0:0 / analyse=0x3:0x113 / me=hex / subme=7 / psy=1 / psy_rd=1.0:0.0 / mixed_ref=1 / me_range=16 / chroma_me=1 / trellis=1 / 8x8dct=1 / cqm=0 / deadzone=21,11 / chroma_qp_offset=-2 / threads=4 / nr=0 / decimate=1 / mbaff=0 / constrained_intra=0 / bframes=3 / b_pyramid=0 / b_adapt=1 / b_bias=0 / direct=1 / wpredb=1 / wpredp=2 / keyint=250 / keyint_min=25 / scenecut=40 / rc_lookahead=40 / rc=abr / mbtree=1 / bitrate=11738 / ratetol=1.0 / qcomp=0.60 / qpmin=10 / qpmax=51 / qpstep=4 / ip_ratio=1.40 / aq=1:1.00
Default : Да
Forced : Нет
Аудио
Идентификатор : 2
Формат : AC-3
Формат/Информация : Audio Coding 3
Расширение режима : CM (complete main)
Параметр Endianness формата : Big
Идентификатор кодека : A_AC3
Продолжительность : 1 ч. 20 м.
Вид битрейта : Постоянный
Битрейт : 640 Кбит/сек
Каналы : 6 каналов
Расположение каналов : Front: L C R, Side: L R, LFE
Частота : 48,0 КГц
Битовая глубина : 16 бит
Метод сжатия : С потерями
Размер потока : 368 Мбайт (5%)
Default : Да
Forced : Нет
-

Скриншоты

-
0 человек читают эту тему: 0 пользователей, 0 скрытых пользователей, 0 гостей

Показать сообщения:    

Текущее время: 23-Авг 07:21

Часовой пояс: UTC - 1


Вы не можете начинать темы
Вы не можете отвечать на сообщения
Вы не можете редактировать свои сообщения
Вы не можете удалять свои сообщения
Вы не можете голосовать в опросах
Вы не можете прикреплять файлы к сообщениям
Вы не можете скачивать файлы

!ВНИМАНИЕ!
Сайт не предоставляет электронные версии произведений, а занимается лишь коллекционированием и каталогизацией ссылок, присылаемых и публикуемых на форуме нашими читателями. Если вы являетесь правообладателем какого-либо представленного материала и не желаете, чтобы ссылка на него находилась в нашем каталоге, свяжитесь с нами, и мы незамедлительно удалим ее. Файлы для обмена на трекере предоставлены пользователями сайта, и администрация не несет ответственности за их содержание. Просьба не заливать файлы, защищенные авторскими правами, а также файлы нелегального содержания!