Важное объявление!
У Нас Все раздачи мультитрекерные, при нуле пиров в релизах, можете смело вставать на закачку!
 
Автор Сообщение

HUNTER

Стаж:
4 года 6 месяцев
Сообщений:
60981

Репутация: 101

[+] [-]
Вне форума [Профиль] [ЛС]

Риллингтон Плейс, дом 10 / 10 Rillington Place
Страна: Великобритания
Студия: Columbia Pictures
Жанр: драма, криминал, биография
Год выпуска: 1970
Продолжительность: 01:50:55
Перевод: Одноголосый закадровый - Иван Сафронов (*Jonathan*)
Cубтитры: русские, английские
Оригинальная аудиодорожка: английский
Режиссер: Ричард Флайшер /Richard Fleischer
В ролях: Ричард Аттенборо, Джуди Гисон, Джон Хёрт, Пэт Хейвуд, Изобель Блэк, Мисс Райли, Филлис МакМэйхон, Рэй Баррон, Дуглас Блэкуелл, Джимми Гарднер, Эдвард Эванс
Описание: ондон. 1944 год. Ночью, во время бомбежки, женщина проникает в полуразвалившийся дом. Там она встречает Джона Кристи, пятидесятилетнего дружинника. Он хочет помочь женщине избавиться от кашля, надевая кислородную маску. Но та неожиданно начинает задыхаться. Тогда Кристи бросается на женщину, насилует и душит. После этого он зарывает труп у себя в саду, где уже находятся несколько других тел. В 1949 году Кристи возвращается к работе бухгалтера. Он сдает второй этаж своего дома молодой супружеской чете с ребенком, Тимоти и Берил Эванс…
Доп. информация: Рип скачан с зарубежного трекера. Русская дорожка и субтитры взяты отсюда. За субтитры большое спасибо Verrucka, за озвучивание по субтитрам спасибо *Jonathan*.

Sample
Тип релиза: WEB-DL 720p
Контейнер: MKV
Видео: MPEG4 AVC Video, H264, 16:9, 1280x718, 23.976 fps, 3855 kbps
Аудио: Russian (AC3, 2 ch, 192 kbps, 16 bits, 48.0 KHz) - VO Сафронов
Аудио 2: English (AC3, 2 ch, 192 kbps, 16 bits, 48.0 KHz) - оригинал
Формат субтитров: softsub (SRT)
MediaInfo
General
Unique ID : 254259742336902567319067744926792092029 (0xBF48A52804B60CC8B18317EDD8C3097D)
Complete name : E:\1\10 Rillington Place\10.Rillington.Place.720p.WEB-DL.mkv
Format : Matroska
Format version : Version 4 / Version 2
File size : 3.35 GiB
Duration : 1h 50mn
Overall bit rate : 4 325 Kbps
Encoded date : UTC 2014-06-07 22:00:33
Writing application : mkvmerge v6.1.0 ('Old Devil') built on Mar 2 2013 14:32:37
Writing library : libebml v1.3.0 + libmatroska v1.4.0
Video
ID : 1
Format : AVC
Format/Info : Advanced Video Codec
Format profile : High@L3.1
Format settings, CABAC : No
Format settings, ReFrames : 2 frames
Codec ID : V_MPEG4/ISO/AVC
Duration : 1h 50mn
Bit rate : 3 855 Kbps
Width : 1 280 pixels
Height : 718 pixels
Display aspect ratio : 16:9
Frame rate mode : Constant
Frame rate : 23.976 fps
Color space : YUV
Chroma subsampling : 4:2:0
Bit depth : 8 bits
Scan type : Progressive
Bits/(Pixel*Frame) : 0.175
Stream size : 2.99 GiB (89%)
Language : English
Default : Yes
Forced : No
Color primaries : BT.709
Transfer characteristics : BT.709
Matrix coefficients : BT.709
Audio #1
ID : 2
Format : AC-3
Format/Info : Audio Coding 3
Mode extension : CM (complete main)
Format settings, Endianness : Big
Codec ID : A_AC3
Duration : 1h 50mn
Bit rate mode : Constant
Bit rate : 192 Kbps
Channel count : 2 channels
Channel positions : Front: L R
Sampling rate : 48.0 KHz
Bit depth : 16 bits
Compression mode : Lossy
Stream size : 152 MiB (4%)
Language : Russian
Default : Yes
Forced : No
Audio #2
ID : 3
Format : AC-3
Format/Info : Audio Coding 3
Mode extension : CM (complete main)
Format settings, Endianness : Big
Codec ID : A_AC3
Duration : 1h 50mn
Bit rate mode : Constant
Bit rate : 192 Kbps
Channel count : 2 channels
Channel positions : Front: L R
Sampling rate : 48.0 KHz
Bit depth : 16 bits
Compression mode : Lossy
Stream size : 152 MiB (4%)
Language : English
Default : No
Forced : No
Text #1
ID : 4
Format : UTF-8
Codec ID : S_TEXT/UTF8
Codec ID/Info : UTF-8 Plain Text
Language : Russian
Default : No
Forced : No
Text #2
ID : 5
Format : UTF-8
Codec ID : S_TEXT/UTF8
Codec ID/Info : UTF-8 Plain Text
Language : English
Default : No
Forced : No
Menu
00:00:00.000 : en:Chapter 1
00:02:05.000 : en:Chapter 2
00:07:01.000 : en:Chapter 3
00:07:57.000 : en:Chapter 4
00:11:20.000 : en:Chapter 5
00:13:51.000 : en:Chapter 6
00:18:32.000 : en:Chapter 7
00:22:26.000 : en:Chapter 8
00:27:45.000 : en:Chapter 9
00:31:27.000 : en:Chapter 10
00:35:56.000 : en:Chapter 11
00:39:34.000 : en:Chapter 12
00:42:19.000 : en:Chapter 13
00:46:22.000 : en:Chapter 14
00:50:17.000 : en:Chapter 15
00:59:23.000 : en:Chapter 16
01:05:44.000 : en:Chapter 17
01:09:55.000 : en:Chapter 18
01:12:03.000 : en:Chapter 19
01:15:52.000 : en:Chapter 20
01:19:29.000 : en:Chapter 21
01:21:47.000 : en:Chapter 22
01:29:53.000 : en:Chapter 23
01:34:15.000 : en:Chapter 24
01:38:05.000 : en:Chapter 25
01:41:58.000 : en:Chapter 26
01:44:00.000 : en:Chapter 27
01:46:42.000 : en:Chapter 28
Скриншоты

_________________
Показать сообщения:    

Текущее время: Сегодня 02:45

Часовой пояс: GMT



Вы не можете начинать темы
Вы не можете отвечать на сообщения
Вы не можете редактировать свои сообщения
Вы не можете удалять свои сообщения
Вы не можете голосовать в опросах
Вы не можете прикреплять файлы к сообщениям
Вы не можете скачивать файлы
Наши партнеры: интернет магазин Ивановского трикотажа textilla.ru