Важное объявление!
У Нас Все раздачи мультитрекерные, при нуле пиров в релизах, можете смело вставать на закачку!
 
Автор Сообщение

HUNTER

Стаж:
4 года 7 месяцев
Сообщений:
61614

Репутация: 101

[+] [-]
Вне форума [Профиль] [ЛС]

Решение перед рассветом / Decision Before Dawn
Страна: США
Жанр: драма, военный
Год выпуска: 1951
Продолжительность: 1.59.38
Перевод: Профессиональный (многоголосый закадровый)
Cубтитры: английские
Оригинальная аудиодорожка: английский
Режиссер: Анатоль Литвак / Anatole Litvak
В ролях: Ричард Бейсхарт, Гэри Меррил, Оскар Вернер, Хильдегард Кнеф, Доминик Бланшар, О.Э. Хассе, Вилфрид Зейферт, Ганс Кристиан Блех, Хелен Тимиг, Роберт Фрайтаг, Джордж Тайн, Герт Фрёбе, Вернер Фюттерер, Лони Хойзер, Клаус Кински, Вальтер Ладенгаст, Шарль Ренье, Арнулф Шрёдер, Мария Уиммер
Описание: Экранизация романа Джорджа Хоу "Это называется измена".
Действие фильма начинается 8 декабря 1944 года. Вторая мировая война, входит в свою последнюю фазу: Германия находится в руинах, но войска вермахта ведут ожесточенные бои на всех фронтах. Армия США готовится нанести мощный удар по противнику с Запада. Но ей не хватает знаний о важнейших немецких подразделениях, действующих на противоположной стороне Рейна. Заброска на территорию, контролируемую германской армией, агентов-иностранцев исключена. Поэтому, американская военная разведка решает отправить в германский тыл двух немецких военнопленных для сбора информации. Задание очень рискованное, так как гестапо имеет по всей стране. эффективную сеть по выявлению и захвату как диверсантов, так и немецких дезертиров. Кроме того, не ясно, насколько надежны сами немцы, отправленные в тыл к противнику. Один из них -"Тигр" (Рудольф Бартс), не скрывает, что согласился работать на американцев только потому, что понял - война Германией проиграна. Второй – “Счастливчик”(Карл Маурер), заявляет, что хочет бороться с нацистским режимом. Контролировать работу немецких агентов на вражеской территории также направлен офицер связи разведки США – лейтенант Ренник. Главное задание разведчиков - узнать о местонахождении мощного немецкого бронетанкового корпуса, чье вмешательство может оказаться решающим, в предстоящем сражении на Западном фронте.

Сэмпл: http://sendfile.su/896772
Тип релиза: WEB-DL 720p
Контейнер: MKV
Видео: x264 1022x720pix 3 928 Kbps 23.976 fps
Аудио: Russian (Dolby AC3, 2 ch, 48kHz , 192 kbps)
Аудио 2: English (Dolby AC3, 2 ch, 48kHz , 192 kbps)

MediaInfo

General
Unique ID : 181975811614597341143995188154748401510 (0x88E74437A86CFF2BBCA0840251707766)
Complete name : /home/alexandr/www/Decision.Before.Dawn.1951.720p.WEB-DL.AC3_2.0.H.264.mkv
Format : Matroska
Format version : Version 4 / Version 2
File size : 3.68 GiB
Duration : 1h 59mn
Overall bit rate : 4 400 Kbps
Encoded date : UTC 2013-11-15 10:00:52
Writing application : mkvmerge v6.5.0 ('Isn't she lovely') built on Oct 20 2013 12:50:05
Writing library : libebml v1.3.0 + libmatroska v1.4.1
Video
ID : 1
Format : AVC
Format/Info : Advanced Video Codec
Format profile : High@L3.1
Format settings, CABAC : No
Format settings, ReFrames : 2 frames
Codec ID : V_MPEG4/ISO/AVC
Duration : 1h 59mn
Bit rate : 3 928 Kbps
Width : 1 022 pixels
Height : 720 pixels
Display aspect ratio : 1.419
Frame rate mode : Constant
Frame rate : 23.976 fps
Color space : YUV
Chroma subsampling : 4:2:0
Bit depth : 8 bits
Scan type : Progressive
Bits/(Pixel*Frame) : 0.223
Stream size : 3.28 GiB (89%)
Language : English
Default : Yes
Forced : No
Color primaries : BT.709
Transfer characteristics : BT.709
Matrix coefficients : BT.709
Audio #1
ID : 2
Format : AC-3
Format/Info : Audio Coding 3
Mode extension : CM (complete main)
Format settings, Endianness : Big
Codec ID : A_AC3
Duration : 1h 59mn
Bit rate mode : Constant
Bit rate : 192 Kbps
Channel count : 2 channels
Channel positions : Front: L R
Sampling rate : 48.0 KHz
Bit depth : 16 bits
Compression mode : Lossy
Stream size : 164 MiB (4%)
Title : Russian
Language : Russian
Default : Yes
Forced : No
Audio #2
ID : 3
Format : AC-3
Format/Info : Audio Coding 3
Mode extension : CM (complete main)
Format settings, Endianness : Big
Codec ID : A_AC3
Duration : 1h 59mn
Bit rate mode : Constant
Bit rate : 192 Kbps
Channel count : 2 channels
Channel positions : Front: L R
Sampling rate : 48.0 KHz
Bit depth : 16 bits
Compression mode : Lossy
Stream size : 164 MiB (4%)
Title : English
Language : English
Default : No
Forced : No
Text
ID : 4
Format : UTF-8
Codec ID : S_TEXT/UTF8
Codec ID/Info : UTF-8 Plain Text
Title : English
Language : English
Default : No
Forced : No
Menu
00:00:00.000 : en:Chapter 1
00:02:03.000 : en:Chapter 2
00:09:04.000 : en:Chapter 3
00:14:24.000 : en:Chapter 4
00:22:03.000 : en:Chapter 5
00:23:34.000 : en:Chapter 6
00:25:51.000 : en:Chapter 7
00:30:23.000 : en:Chapter 8
00:37:18.000 : en:Chapter 9
00:45:30.000 : en:Chapter 10
00:48:56.000 : en:Chapter 11
00:58:29.000 : en:Chapter 12
01:10:58.000 : en:Chapter 13
01:15:33.000 : en:Chapter 14
01:28:14.000 : en:Chapter 15
01:31:58.000 : en:Chapter 16
01:38:36.000 : en:Chapter 17
01:44:40.000 : en:Chapter 18
01:51:02.000 : en:Chapter 19
01:56:49.000 : en:Chapter 20

Скриншоты



_________________
Показать сообщения:    

Текущее время: Сегодня 16:50

Часовой пояс: GMT



Вы не можете начинать темы
Вы не можете отвечать на сообщения
Вы не можете редактировать свои сообщения
Вы не можете удалять свои сообщения
Вы не можете голосовать в опросах
Вы не можете прикреплять файлы к сообщениям
Вы не можете скачивать файлы
Наши партнеры: интернет магазин Ивановского трикотажа textilla.ru