Важное объявление!
У Нас Все раздачи мультитрекерные, при нуле пиров в релизах, можете смело вставать на закачку!
Статистика раздачи
Размер:     |    Зарегистрирован:     |    Скачан:     |   
Нет
 
     
 
 
Автор Сообщение

HUNTER

Стаж:
5 лет 1 месяц
Сообщений:
68449

Репутация: 101

[+] [-]
Вне форума [Профиль] [ЛС]

Ресторан Элис / Alice's Restaurant-Страна: США
Студия: Elkins Entertainment, Florin | United Artists
Жанр: драма
Год выпуска: 1969
Продолжительность: 01:46:10-Перевод: Профессиональный (двухголосый закадровый) НТВ+ /Перевод Юрия Сербина, текст читали Людмила Шувалова, Александр Воронов/
Cубтитры: нет
Оригинальная аудиодорожка: английский-Режиссер: Артур Пенн / Arthur Penn
В ролях: Арло Гатри, Патриция Куинн, Джеймс Бродерик, Пит Сигер, Ли Хэйс, Тина Чен, Кэтлин Дэбни...- | Релиз: -Описание: Арло Гатри, сын певца Вуди Гатри, стал знаменит в 60-х годах своей 18-минутной песней "Резня в ресторане Элис", в которой он рассказывает историю своего ареста и суда, приведшего к тому, что его не призвали на войну во Вьетнам. Режиссер Артур Пени использовал подробнейшее и забавное воссоздание событий, изложенных в песне. Джеймс Бродерик сыграл стареющего хиппи, купившего церковь в Стокбридже, штат Массачусетс, где и живет полной приятностей жизнью со своей женой Элис. К ним стекаются разношерстные и колоритные "отбросы" общества...-Семпл: http://sendfile.su/1138278-Тип релиза: HDTV 1080i
Контейнер: TS
Видео: 1920x1080i (16:9), 25.000 fps, AVC, ~6869 Kbps, 0.132 bits/pixel
Аудио 1: Русский, 48.0 KHz, MPEG-1 Audio layer 2, 2 ch, 192 kbps
Аудио 2: English, 48.0 KHz, MPEG-1 Audio layer 2, 2 ch, 192 kbps

MediaInfo

GeneralID : 1 (0x1)Complete name : Alice's Restaurant 1969 MGMHD 1080i.rus.eng.tsFormat : MPEG-TSFile size : 5.66 GiBDuration : 1h 46mnOverall bit rate mode : VariableOverall bit rate : 7 634 KbpsMaximum Overall bit rate : 35.5 Mbps
VideoID : 4113 (0x1011)Menu ID : 1 (0x1)Format : AVCFormat/Info : Advanced Video CodecFormat profile : Main@L4Format settings, CABAC : YesFormat settings, ReFrames : 4 framesCodec ID : 27Duration : 1h 46mnBit rate : 6 869 KbpsWidth : 1 920 pixelsHeight : 1 080 pixelsDisplay aspect ratio : 16:9Frame rate : 25.000 fpsStandard : ComponentColor space : YUVChroma subsampling : 4:2:0Bit depth : 8 bitsScan type : InterlacedScan order : Top Field FirstBits/(Pixel*Frame) : 0.132Stream size : 5.09 GiB (90%)Color range : LimitedColor primaries : BT.709Transfer characteristics : BT.709Matrix coefficients : BT.709
Audio #1ID : 4352 (0x1100)Menu ID : 1 (0x1)Format : MPEG AudioFormat version : Version 1Format profile : Layer 2Codec ID : 4Duration : 1h 46mnBit rate mode : ConstantBit rate : 192 KbpsChannel(s) : 2 channelsSampling rate : 48.0 KHzCompression mode : LossyStream size : 146 MiB (3%)Language : Russian
Audio #2ID : 4353 (0x1101)Menu ID : 1 (0x1)Format : MPEG AudioFormat version : Version 1Format profile : Layer 2Codec ID : 4Duration : 1h 46mnBit rate mode : ConstantBit rate : 192 KbpsChannel(s) : 2 channelsSampling rate : 48.0 KHzCompression mode : LossyStream size : 146 MiB (3%)Language : English

Скриншоты


_________________
Показать сообщения:    

Текущее время: Сегодня 02:52

Часовой пояс: GMT



Вы не можете начинать темы
Вы не можете отвечать на сообщения
Вы не можете редактировать свои сообщения
Вы не можете удалять свои сообщения
Вы не можете голосовать в опросах
Вы не можете прикреплять файлы к сообщениям
Вы не можете скачивать файлы