Ивановский Торрент трекер
Яндекс.Погода
Статистика раздачи
Размер:  4.33 GB   |    Зарегистрирован:  1 год 4 месяца   |    Скачан:  0 раз

Полного источника не было: Никогда

 
     
 
 
 

[Цитировать]
HUNTER

Репортерша / Whiskey Tango Foxtrot
Страна: США
Студия: Broadway Video, Little Strange, Paramount Pictures
Жанр: драма, комедия, военный, биография
Год выпуска: 2016
Продолжительность: 01:51:48
Перевод: Любительский (дублированный) (iTunes)
Cубтитры: Русские (форсированные, полные), английские (форсированные, полные)
Оригинальная аудиодорожка: английский
Режиссер: Гленн Фикарра / Glenn Ficarra, Джон Рекуа / John Requa
В ролях: Тина Фей, Марго Робби, Мартин Фриман, Альфред Молина, Кристофер Эбботт, Билли Боб Торнтон, Николас Браун, Стивен Пикок, Шейла Ванд, Эван Йоникит
Описание: Фильм расскажет о деятельности журналистки в качестве репортёра в Афганистане и Пакистане, после прибытия туда в 2002 году.

Cэмпл: http://multi-up.com/1112632
Тип релиза: BDRip 720p (Исх. BDRemux)
Контейнер: MKV
Видео: 1280x720 (16:9) at 23.976 fps, AVC at 4604 kbps avg, 0.208 bit/pixel
Аудио: 48,0 КГц, AC3, 6 каналов, 16 бит, ~384 Кбит/сек (Русский)
Аудио 2: 48,0 КГц, AC3, 6 каналов, 16 бит, ~448 Кбит/сек (Английский)
Навигация по главам: есть

MediaInfo

Общее
Уникальный идентификатор : 204313606977783542585567953467459293136 (0x99B55E8F31018A48A515A3E09620CFD0)
Полное имя : S:\Фильмы\Репортерша. 2016. BDRip 720p (AleksSin).mkv
Формат : Matroska
Версия формата : Version 2
Размер файла : 4,33 Гбайт
Продолжительность : 1 ч. 51 м.
Общий поток : 5547 Кбит/сек
Дата кодирования : UTC 2016-07-31 20:01:20
Программа кодирования : mkvmerge v7.8.0 ('River Man') 32bit built on Apr 3 2015 12:11:22
Библиотека кодирования : libebml v1.3.1 + libmatroska v1.4.2
Видео
Идентификатор : 1
Формат : AVC
Формат/Информация : Advanced Video Codec
Профиль формата : High@L4.1
Параметр CABAC формата : Да
Параметр ReFrames формата : 9 кадров
Идентификатор кодека : V_MPEG4/ISO/AVC
Продолжительность : 1 ч. 51 м.
Битрейт : 4604 Кбит/сек
Ширина : 1280 пикселей
Высота : 720 пикселей
Соотношение сторон : 16:9
Режим частоты кадров : Постоянный
Частота кадров : 23,976 кадра/сек
Цветовое пространство : YUV
Субдискретизация насыщенности : 4:2:0
Битовая глубина : 8 бит
Тип развёртки : Прогрессивная
Бит/(Пиксели*Кадры) : 0.208
Размер потока : 3,60 Гбайт (83%)
Библиотека кодирования : x264 core 148 r2705 3f5ed56
Настройки программы : cabac=1 / ref=9 / deblock=1:-3:-3 / analyse=0x3:0x133 / me=umh / subme=10 / psy=1 / psy_rd=1.05:0.00 / mixed_ref=1 / me_range=32 / chroma_me=1 / trellis=2 / 8x8dct=1 / cqm=0 / deadzone=21,11 / fast_pskip=0 / chroma_qp_offset=-2 / threads=12 / lookahead_threads=2 / sliced_threads=0 / nr=0 / decimate=1 / interlaced=0 / bluray_compat=0 / constrained_intra=0 / bframes=8 / b_pyramid=2 / b_adapt=2 / b_bias=0 / direct=3 / weightb=1 / open_gop=0 / weightp=2 / keyint=240 / keyint_min=23 / scenecut=40 / intra_refresh=0 / rc_lookahead=60 / rc=crf / mbtree=0 / crf=18.0 / qcomp=0.70 / qpmin=0 / qpmax=69 / qpstep=4 / vbv_maxrate=38000 / vbv_bufsize=30000 / crf_max=0.0 / nal_hrd=none / filler=0 / ip_ratio=1.30 / pb_ratio=1.20 / aq=3:0.85
Default : Да
Forced : Нет
Аудио #1
Идентификатор : 2
Формат : AC-3
Формат/Информация : Audio Coding 3
Расширение режима : CM (complete main)
Параметр Endianness формата : Big
Идентификатор кодека : A_AC3
Продолжительность : 1 ч. 51 м.
Вид битрейта : Постоянный
Битрейт : 384 Кбит/сек
Каналы : 6 каналов
Расположение каналов : Front: L C R, Side: L R, LFE
Частота : 48,0 КГц
Битовая глубина : 16 бит
Метод сжатия : С потерями
Размер потока : 307 Мбайт (7%)
Заголовок : DUB [iTunes]
Язык : Russian
Default : Да
Forced : Нет
Аудио #2
Идентификатор : 3
Формат : AC-3
Формат/Информация : Audio Coding 3
Расширение режима : CM (complete main)
Параметр Endianness формата : Big
Идентификатор кодека : A_AC3
Продолжительность : 1 ч. 51 м.
Вид битрейта : Постоянный
Битрейт : 448 Кбит/сек
Каналы : 6 каналов
Расположение каналов : Front: L C R, Side: L R, LFE
Частота : 48,0 КГц
Битовая глубина : 16 бит
Метод сжатия : С потерями
Размер потока : 358 Мбайт (8%)
Заголовок : Original
Язык : English
Default : Нет
Forced : Нет
Текст #1
Идентификатор : 4
Формат : UTF-8
Идентификатор кодека : S_TEXT/UTF8
Идентификатор кодека/Информация : UTF-8 Plain Text
Заголовок : форсированные
Язык : Russian
Default : Да
Forced : Нет
Текст #2
Идентификатор : 5
Формат : UTF-8
Идентификатор кодека : S_TEXT/UTF8
Идентификатор кодека/Информация : UTF-8 Plain Text
Заголовок : полные
Язык : Russian
Default : Нет
Forced : Нет
Текст #3
Идентификатор : 6
Формат : UTF-8
Идентификатор кодека : S_TEXT/UTF8
Идентификатор кодека/Информация : UTF-8 Plain Text
Заголовок : форсированные
Язык : English
Default : Нет
Forced : Нет
Текст #4
Идентификатор : 7
Формат : UTF-8
Идентификатор кодека : S_TEXT/UTF8
Идентификатор кодека/Информация : UTF-8 Plain Text
Заголовок : полные
Язык : English
Default : Нет
Forced : Нет
Меню
00:00:00.000 : en:
00:07:46.466 : en:
00:13:47.910 : en:
00:23:38.834 : en:
00:30:28.660 : en:
00:37:27.036 : en:
00:45:36.775 : en:
00:55:40.587 : en:
01:05:02.106 : en:
01:12:14.455 : en:
01:17:50.332 : en:
01:24:56.007 : en:
01:34:04.972 : en:
01:39:50.651 : en:
01:51:48.118 : en:

x264 лог

264 [info]: frame I:1405 Avg QP:14.34 size: 98998
x264 [info]: frame P:33044 Avg QP:15.78 size: 43301
x264 [info]: frame B:126390 Avg QP:17.31 size: 18844
x264 [info]: consecutive B-frames: 2.2% 2.1% 6.3% 14.4% 17.3% 39.2% 10.3% 3.7% 4.3%

Скриншоты

[iv-torrents.ru].t60195.torrent
Торрент: Зарегистрирован [ 2016-08-07 15:42 ] · 1032E2142B169831219BE0C227AB4ACBE038951F

Скачать .torrent

Скачать

11 KB

Статус: проверено
Скачан: 0 раз
Размер: 4.33 GB
terms.php
Похожие темы


Показать сообщения:    

Текущее время: 13-Дек 15:20

Часовой пояс: UTC ± 0


Вы не можете начинать темы
Вы не можете отвечать на сообщения
Вы не можете редактировать свои сообщения
Вы не можете удалять свои сообщения
Вы не можете голосовать в опросах
Вы не можете прикреплять файлы к сообщениям
Вы можете скачивать файлы

!ВНИМАНИЕ!
Сайт не предоставляет электронные версии произведений, а занимается лишь коллекционированием и каталогизацией ссылок, присылаемых и публикуемых на форуме нашими читателями. Если вы являетесь правообладателем какого-либо представленного материала и не желаете, чтобы ссылка на него находилась в нашем каталоге, свяжитесь с нами, и мы незамедлительно удалим ее. Файлы для обмена на трекере предоставлены пользователями сайта, и администрация не несет ответственности за их содержание. Просьба не заливать файлы, защищенные авторскими правами, а также файлы нелегального содержания!