Важное объявление!
У Нас Все раздачи мультитрекерные, при нуле пиров в релизах, можете смело вставать на закачку!
 
Автор Сообщение

HUNTER

Стаж:
4 года 8 месяцев
Сообщений:
62091

Репутация: 101

[+] [-]
Вне форума [Профиль] [ЛС]

Репортерша / Whiskey Tango Foxtrot
Страна: США
Жанр: драма, комедия, военный, биография
Год выпуска: 2016
Продолжительность: 01:51:48-Перевод: Профессиональный (дублированный) BD CEE
Cубтитры: русские, английскиe
Оригинальная аудиодорожка: английский-Режиссер: Гленн Фикарра, Джон Рекуа / Glenn Ficarra, John Requa-В ролях: Тина Фей, Марго Робби, Мартин Фриман, Альфред Молина, Кристофер Эбботт, Билли Боб Торнтон, Николас Браун, Стивен Пикок, Шейла Ванд, Эван Йоникит
Описание: Фильм расскажет о деятельности журналистки в качестве репортёра в Афганистане и Пакистане, после прибытия туда в 2002 году.-Рип от VietHD!-Релиз от:
-Тип релиза: BDRip 1080p
Контейнер: MKV-Видео: 1920x1080 (16:9), 23,976 fps, MPEG-4 AVC, ~ 18199 Kbps-Аудио 1: Russian: 48 kHz, AC3, 3/2 (L,C,R,l,r) + LFE ch, ~640.00 kbps avg BD CEE
Аудио 2: English: 48 kHz, DTS, 3/2 (L,C,R,l,r) + LFE ch, ~1506.00 kbps avg

MediaInfo

Общее
Уникальный идентификатор : 195686449408430834971693724364152671868 (0x9337D6D9EAC8E0CE8D77B2B9D4E68E7C)
Полное имя : D:\Whiskey.Tango.Foxtrot.1080p .mkv
Формат : Matroska
Версия формата : Version 2
Размер файла : 15,9 Гбайт
Продолжительность : 1 ч. 51 м.
Общий поток : 20,3 Мбит/сек
Дата кодирования : UTC 2016-08-20 05:43:21
Программа кодирования : mkvmerge v5.6.0 ('Kenya Kane') built on May 27 2012 16:44:04
Библиотека кодирования : libebml v1.2.3 + libmatroska v1.3.0
Видео
Идентификатор : 1
Формат : AVC
Формат/Информация : Advanced Video Codec
Профиль формата : High@L4.1
Параметр CABAC формата : Да
Параметр ReFrames формата : 4 кадра
Идентификатор кодека : V_MPEG4/ISO/AVC
Продолжительность : 1 ч. 51 м.
Битрейт : 17,8 Мбит/сек
Ширина : 1920 пикселей
Высота : 1080 пикселей
Соотношение сторон : 16:9
Режим частоты кадров : Постоянный
Частота кадров : 23,976 кадра/сек
Цветовое пространство : YUV
Субдискретизация насыщенности : 4:2:0
Битовая глубина : 8 бит
Тип развёртки : Прогрессивная
Бит/(Пиксели*Кадры) : 0.358
Размер потока : 13,9 Гбайт (87%)
Библиотека кодирования : x264 core 148 r2692.11 7386685 VietHD_Custom_64
Настройки программы : cabac=1 / ref=4 / deblock=1:-3:-3 / analyse=0x3:0x133 / me=umh / subme=10 / psy=1 / fade_compensate=0.00 / psy_rd=1.07:0.00 / mixed_ref=1 / me_range=24 / chroma_me=1 / trellis=2 / 8x8dct=1 / cqm=0 / deadzone=21,11 / fast_pskip=0 / chroma_qp_offset=-2 / threads=12 / lookahead_threads=2 / sliced_threads=0 / nr=0 / decimate=0 / interlaced=0 / bluray_compat=0 / constrained_intra=0 / fgo=0 / bframes=8 / b_pyramid=2 / b_adapt=2 / b_bias=0 / direct=3 / weightb=1 / open_gop=0 / weightp=2 / keyint=250 / keyint_min=23 / scenecut=40 / intra_refresh=0 / rc_lookahead=60 / rc=crf / mbtree=0 / crf=18.5000 / qcomp=0.65 / qpmin=0:0:0 / qpmax=69:69:69 / qpstep=4 / vbv_maxrate=62500 / vbv_bufsize=78125 / crf_max=0.0 / nal_hrd=none / filler=0 / ip_ratio=1.30 / pb_ratio=1.20 / aq=3:0.76 / aq-sensitivity=10.00 / aq-factor=1.00:1.00:1.00 / aq2=0 / aq3=0
Язык : English
Default : Да
Forced : Нет
Коэффициенты матрицы : BT.709
colour_range : Limited
Аудио #1
Идентификатор : 2
Формат : AC-3
Формат/Информация : Audio Coding 3
Расширение режима : CM (complete main)
Параметр Endianness формата : Big
Режим смешивания : Header stripping
Идентификатор кодека : A_AC3
Продолжительность : 1 ч. 51 м.
Вид битрейта : Постоянный
Битрейт : 640 Кбит/сек
Каналы : 6 каналов
Расположение каналов : Front: L C R, Side: L R, LFE
Частота : 48,0 КГц
Битовая глубина : 16 бит
Метод сжатия : С потерями
Размер потока : 512 Мбайт (3%)
Язык : Russian
Default : Да
Forced : Нет
Аудио #2
Идентификатор : 3
Формат : DTS
Формат/Информация : Digital Theater Systems
Режим : 16
Параметр Endianness формата : Big
Режим смешивания : Header stripping
Идентификатор кодека : A_DTS
Продолжительность : 1 ч. 51 м.
Вид битрейта : Постоянный
Битрейт : 1509 Кбит/сек
Каналы : 6 каналов
Расположение каналов : Front: L C R, Side: L R, LFE
Частота : 48,0 КГц
Битовая глубина : 24 бит
Метод сжатия : С потерями
Задержка видео : 11 мс.
Размер потока : 1,18 Гбайт (7%)
Язык : English
Default : Нет
Forced : Нет
Текст #1
Идентификатор : 4
Формат : UTF-8
Идентификатор кодека : S_TEXT/UTF8
Идентификатор кодека/Информация : UTF-8 Plain Text
Заголовок : Forced, iTunes
Язык : Russian
Default : Да
Forced : Нет
Текст #2
Идентификатор : 5
Формат : UTF-8
Идентификатор кодека : S_TEXT/UTF8
Идентификатор кодека/Информация : UTF-8 Plain Text
Заголовок : iTunes
Язык : Russian
Default : Нет
Forced : Нет
Текст #3
Идентификатор : 6
Формат : UTF-8
Идентификатор кодека : S_TEXT/UTF8
Идентификатор кодека/Информация : UTF-8 Plain Text
Заголовок : Forced, iTunes
Язык : English
Default : Нет
Forced : Нет
Текст #4
Идентификатор : 7
Формат : UTF-8
Идентификатор кодека : S_TEXT/UTF8
Идентификатор кодека/Информация : UTF-8 Plain Text
Язык : English
Default : Нет
Forced : Нет
Текст #5
Идентификатор : 8
Формат : UTF-8
Идентификатор кодека : S_TEXT/UTF8
Идентификатор кодека/Информация : UTF-8 Plain Text
Заголовок : SDH
Язык : English
Default : Нет
Forced : Нет
Меню
00:00:00.000 : en:00:00:00.000
00:07:46.466 : en:00:07:46.466
00:13:47.910 : en:00:13:47.910
00:23:38.834 : en:00:23:38.834
00:30:28.660 : en:00:30:28.660
00:37:27.036 : en:00:37:27.036
00:45:36.776 : en:00:45:36.776
00:55:40.587 : en:00:55:40.587
01:05:02.107 : en:01:05:02.107
01:12:14.455 : en:01:12:14.455
01:17:50.332 : en:01:17:50.332
01:24:56.008 : en:01:24:56.008
01:34:04.973 : en:01:34:04.973
01:39:50.651 : en:01:39:50.651

Скриншоты


_________________
Показать сообщения:    

Текущее время: Сегодня 20:32

Часовой пояс: GMT



Вы не можете начинать темы
Вы не можете отвечать на сообщения
Вы не можете редактировать свои сообщения
Вы не можете удалять свои сообщения
Вы не можете голосовать в опросах
Вы не можете прикреплять файлы к сообщениям
Вы не можете скачивать файлы
Наши партнеры: интернет магазин Ивановского трикотажа textilla.ru