Ивановский Торрент трекер
Яндекс.Погода
 

[Цитировать]
HUNTER

Рейдер
Страна: Россия
Жанр: Драма, криминал
Год выпуска: 2011
Продолжительность: 01:36:14
Перевод: Не требуется
Cубтитры: нет
Режиссер: Всеволод Аравин
В ролях: Егор Бероев, Виталий Хаев, Екатерина Вилкова, Виктор Раков, Кирилл Плетнёв, Владимир Стеклов, Вячеслав Разбегаев, Валентина Талызина, Сергей Угрюмов, Роман Полянский
Описание: Рейдеры - охотники за большим бизнесом. Чтобы завладеть успешным предприятием, они идут на подделку документов, применение силы и даже убийства. Противостоять им невозможно... Очередной заказ могущественного рейдера Спирского - захватить научно-исследовательский институт. Смещенный с должности директор захваченного НИИ обращается за помощью к известному адвокату Павлову. Ситуация выходит из-под контроля рейдеров. Благодаря случайному знакомству с очаровательной Настей, Павлов узнает шокирующие факты о реальных причинах рейдерского захвата...
Релиз:
Сэмпл: http://www.sendspace.com/file/fdpggn
Тип релиза: Blu-ray disc
Контейнер: BDMV
Видео: MPEG-4 AVC, 27.9 Мбит/с, 1920х1080, 23.976 кадр/с
Аудио: DTS-HD MA, 6 ch, 2120 Кбит/с, 48 KHz

BDInfo

Disc Title: Rejder.2011.x264.Blu-Ray(1080p).HDClub
Disc Size: 23 092 617 597 bytes
Protection: AACS
BD-Java: No
BDInfo: 0.5.2
Notes:
BDINFO HOME AND REPORTS SUBMISSION:
Cinema Squid
http://www.cinemasquid.com/Tools.aspx
INCLUDES FORUMS REPORT FOR:
Unofficial Blu-ray Audio and Video Specifications Thread
http://www.avsforum.com/avs-vb/showthread.php?t=760714
http://forum.blu-ray.com/showthread.php?t=3338
********************
PLAYLIST: 00004.MPLS
********************
Total Video
Title Codec Length Movie Size Disc Size Bitrate Bitrate Main Audio Track Secondary Audio Track
----- ------ ------- -------------- -------------- ------- ------- ------------------ ---------------------
00004.MPLS AVC 1:36:14 22 909 384 704 23 092 617 597 31,74 28,00 DTS-HD Master 5.1 2120Kbps (48kHz/16-bit)
DISC INFO:
Disc Title: Rejder.2011.x264.Blu-Ray(1080p).HDClub
Disc Size: 23 092 617 597 bytes
Protection: AACS
BD-Java: No
BDInfo: 0.5.2
PLAYLIST REPORT:
Name: 00004.MPLS
Size: 22 909 384 704 bytes
Length: 1:36:14 (h:m:s)
Total Bitrate: 31,74 Mbps
Description:
VIDEO:
Codec Bitrate Description
----- ------- -----------
MPEG-4 AVC Video 27999 kbps 1080p / 23,976 fps / 16:9 / High Profile 4.1
AUDIO:
Codec Language Bitrate Description
----- -------- ------- -----------
DTS-HD Master Audio Russian 2120 kbps 5.1 / 48 kHz / 2120 kbps / 16-bit (DTS Core: 5.1 / 48 kHz / 1509 kbps / 16-bit)
FILES:
Name Time In Length Size Total Bitrate
---- ------- ------ ---- -------------
00007.M2TS 0:00:00.000 1:36:14.310 22 909 384 704 31 740
CHAPTERS:
Number Time In Length Avg Video Rate Max 1-Sec Rate Max 1-Sec Time Max 5-Sec Rate Max 5-Sec Time Max 10Sec Rate Max 10Sec Time Avg Frame Size Max Frame Size Max Frame Time
------ ------- ------ -------------- -------------- -------------- -------------- -------------- -------------- -------------- -------------- -------------- --------------
1 0:00:00.000 0:06:06.949 26 726 kbps 49 506 kbps 00:05:49.140 43 165 kbps 00:05:49.015 38 081 kbps 00:05:44.635 139 319 bytes 455 354 bytes 00:05:08.308
2 0:06:06.949 0:04:50.873 28 849 kbps 45 506 kbps 00:09:59.807 35 588 kbps 00:09:58.681 34 046 kbps 00:09:53.175 150 408 bytes 459 793 bytes 00:10:48.189
3 0:10:57.823 0:05:51.267 30 665 kbps 48 229 kbps 00:15:13.621 40 123 kbps 00:15:13.621 37 553 kbps 00:15:13.621 159 873 bytes 460 924 bytes 00:16:05.422
4 0:16:49.091 0:07:12.223 28 267 kbps 48 829 kbps 00:19:10.023 41 352 kbps 00:21:35.752 37 616 kbps 00:18:12.549 147 371 bytes 449 203 bytes 00:17:22.082
5 0:24:01.314 0:05:52.769 30 811 kbps 47 623 kbps 00:24:13.285 43 674 kbps 00:26:34.134 39 032 kbps 00:24:07.446 160 632 bytes 461 524 bytes 00:26:58.867
6 0:29:54.083 0:06:17.794 30 171 kbps 49 265 kbps 00:31:20.086 40 630 kbps 00:34:25.605 38 610 kbps 00:31:19.419 157 298 bytes 460 143 bytes 00:31:27.218
7 0:36:11.878 0:05:56.356 29 049 kbps 46 669 kbps 00:40:25.923 38 057 kbps 00:40:25.840 35 209 kbps 00:40:23.003 151 450 bytes 460 858 bytes 00:38:13.791
8 0:42:08.234 0:05:59.525 28 989 kbps 47 918 kbps 00:45:09.248 42 580 kbps 00:45:05.994 36 767 kbps 00:45:02.700 151 134 bytes 477 309 bytes 00:46:42.049
9 0:48:07.759 0:06:58.418 28 630 kbps 48 831 kbps 00:52:47.914 43 569 kbps 00:51:58.490 37 298 kbps 00:51:56.404 149 263 bytes 453 292 bytes 00:49:31.969
10 0:55:06.177 0:06:27.720 30 218 kbps 49 671 kbps 00:56:07.489 41 722 kbps 00:59:52.630 37 633 kbps 00:57:10.218 157 545 bytes 474 567 bytes 00:59:31.734
11 1:01:33.898 0:05:13.563 28 765 kbps 49 164 kbps 01:04:46.257 41 629 kbps 01:03:50.117 37 339 kbps 01:03:46.989 149 970 bytes 458 749 bytes 01:04:56.267
12 1:06:47.461 0:05:46.596 28 448 kbps 47 173 kbps 01:11:10.015 42 036 kbps 01:10:00.112 38 793 kbps 01:09:59.987 148 317 bytes 452 618 bytes 01:11:03.050
13 1:12:34.058 0:05:33.750 27 742 kbps 48 399 kbps 01:13:36.453 38 791 kbps 01:13:33.826 34 661 kbps 01:16:16.488 144 634 bytes 463 189 bytes 01:15:57.010
14 1:18:07.808 0:07:29.615 28 462 kbps 50 299 kbps 01:24:36.988 40 410 kbps 01:21:51.072 39 166 kbps 01:21:51.865 148 388 bytes 471 511 bytes 01:24:33.068
15 1:25:37.423 0:07:13.516 22 803 kbps 43 787 kbps 01:28:33.558 35 101 kbps 01:26:15.211 33 270 kbps 01:26:15.503 118 886 bytes 444 753 bytes 01:26:11.374
16 1:32:50.940 0:03:23.369 14 396 kbps 33 995 kbps 01:33:03.869 28 803 kbps 01:33:03.869 28 060 kbps 01:33:03.869 75 071 bytes 416 669 bytes 01:33:11.586
STREAM DIAGNOSTICS:
File PID Type Codec Language Seconds Bitrate Bytes Packets
---- --- ---- ----- -------- -------------- -------------- ------------- -----
00007.M2TS 4113 (0x1011) 0x1B AVC 5774,227 27 999 20 209 251 751 109 913 839
00007.M2TS 4352 (0x1100) 0x86 DTS-HD MA rus (Russian) 5774,227 2 120 1 530 011 392 9 212 412
QUICK SUMMARY:
Disc Title: Rejder.2011.x264.Blu-Ray(1080p).HDClub
Disc Size: 23 092 617 597 bytes
Protection: AACS
BD-Java: No
Playlist: 00004.MPLS
Size: 22 909 384 704 bytes
Length: 1:36:14
Total Bitrate: 31,74 Mbps
Video: MPEG-4 AVC Video / 27999 kbps / 1080p / 23,976 fps / 16:9 / High Profile 4.1
Audio: Russian / DTS-HD Master Audio / 5.1 / 48 kHz / 2120 kbps / 16-bit (DTS Core: 5.1 / 48 kHz / 1509 kbps / 16-bit)
********************
PLAYLIST: 00002.MPLS
********************
Total Video
Title Codec Length Movie Size Disc Size Bitrate Bitrate Main Audio Track Secondary Audio Track
----- ------ ------- -------------- -------------- ------- ------- ------------------ ---------------------
00002.MPLS AVC 0:00:25 58 570 752 23 092 617 597 18,69 15,76 DTS-HD Master 7.1 1938Kbps (48kHz/16-bit)
DISC INFO:
Disc Title: Rejder.2011.x264.Blu-Ray(1080p).HDClub
Disc Size: 23 092 617 597 bytes
Protection: AACS
BD-Java: No
BDInfo: 0.5.2
PLAYLIST REPORT:
Name: 00002.MPLS
Size: 58 570 752 bytes
Length: 0:00:25 (h:m:s)
Total Bitrate: 18,69 Mbps
Description:
VIDEO:
Codec Bitrate Description
----- ------- -----------
MPEG-4 AVC Video 15764 kbps 1080p / 23,976 fps / 16:9 / High Profile 4.1
AUDIO:
Codec Language Bitrate Description
----- -------- ------- -----------
DTS-HD Master Audio Russian 1938 kbps 7.1 / 48 kHz / 1938 kbps / 16-bit (DTS Core: 5.1 / 48 kHz / 1509 kbps / 16-bit)
FILES:
Name Time In Length Size Total Bitrate
---- ------- ------ ---- -------------
00002.M2TS 0:00:00.000 0:00:14.389 32 194 560 17 899
00004.M2TS 0:00:14.389 0:00:10.677 26 376 192 19 762
CHAPTERS:
Number Time In Length Avg Video Rate Max 1-Sec Rate Max 1-Sec Time Max 5-Sec Rate Max 5-Sec Time Max 10Sec Rate Max 10Sec Time Avg Frame Size Max Frame Size Max Frame Time
------ ------- ------ -------------- -------------- -------------- -------------- -------------- -------------- -------------- -------------- -------------- --------------
1 0:00:00.000 0:00:25.066 15 764 kbps 28 437 kbps 00:00:16.099 24 957 kbps 00:00:16.141 19 568 kbps 00:00:14.472 82 186 bytes 322 135 bytes 00:00:22.313
STREAM DIAGNOSTICS:
File PID Type Codec Language Seconds Bitrate Bytes Packets
---- --- ---- ----- -------- -------------- -------------- ------------- -----
00002.M2TS 4113 (0x1011) 0x1B AVC 14,223 13 966 24 828 847 135 146
00002.M2TS 4352 (0x1100) 0x86 DTS-HD MA rus (Russian) 14,223 3 079 5 473 724 31 999
00004.M2TS 4113 (0x1011) 0x1B AVC 10,594 18 550 24 564 916 133 652
00004.M2TS 4352 (0x1100) 0x81 AC3 rus (Russian) 10,594 452 598 528 3 340
QUICK SUMMARY:
Disc Title: Rejder.2011.x264.Blu-Ray(1080p).HDClub
Disc Size: 23 092 617 597 bytes
Protection: AACS
BD-Java: No
Playlist: 00002.MPLS
Size: 58 570 752 bytes
Length: 0:00:25
Total Bitrate: 18,69 Mbps
Video: MPEG-4 AVC Video / 15764 kbps / 1080p / 23,976 fps / 16:9 / High Profile 4.1
Audio: Russian / DTS-HD Master Audio / 7.1 / 48 kHz / 1938 kbps / 16-bit (DTS Core: 5.1 / 48 kHz / 1509 kbps / 16-bit)
********************
PLAYLIST: 00001.MPLS
********************
Total Video
Title Codec Length Movie Size Disc Size Bitrate Bitrate Main Audio Track Secondary Audio Track
----- ------ ------- -------------- -------------- ------- ------- ------------------ ---------------------
00001.MPLS AVC 0:00:12 4 896 768 23 092 617 597 3,26 3,06
DISC INFO:
Disc Title: Rejder.2011.x264.Blu-Ray(1080p).HDClub
Disc Size: 23 092 617 597 bytes
Protection: AACS
BD-Java: No
BDInfo: 0.5.2
PLAYLIST REPORT:
Name: 00001.MPLS
Size: 4 896 768 bytes
Length: 0:00:12 (h:m:s)
Total Bitrate: 3,26 Mbps
Description:
VIDEO:
Codec Bitrate Description
----- ------- -----------
MPEG-4 AVC Video 3059 kbps 1080p / 23,976 fps / 16:9 / High Profile 4.1
FILES:
Name Time In Length Size Total Bitrate
---- ------- ------ ---- -------------
00001.M2TS 0:00:00.000 0:00:12.011 4 896 768 3 261
CHAPTERS:
Number Time In Length Avg Video Rate Max 1-Sec Rate Max 1-Sec Time Max 5-Sec Rate Max 5-Sec Time Max 10Sec Rate Max 10Sec Time Avg Frame Size Max Frame Size Max Frame Time
------ ------- ------ -------------- -------------- -------------- -------------- -------------- -------------- -------------- -------------- -------------- --------------
1 0:00:00.000 0:00:12.011 3 059 kbps 8 985 kbps 00:00:10.969 3 347 kbps 00:00:06.715 2 677 kbps 00:00:01.960 15 948 bytes 179 417 bytes 00:00:08.258
STREAM DIAGNOSTICS:
File PID Type Codec Language Seconds Bitrate Bytes Packets
---- --- ---- ----- -------- -------------- -------------- ------------- -----
00001.M2TS 4113 (0x1011) 0x1B AVC 11,845 3 102 4 593 114 25 099
QUICK SUMMARY:
Disc Title: Rejder.2011.x264.Blu-Ray(1080p).HDClub
Disc Size: 23 092 617 597 bytes
Protection: AACS
BD-Java: No
Playlist: 00001.MPLS
Size: 4 896 768 bytes
Length: 0:00:12
Total Bitrate: 3,26 Mbps
Video: MPEG-4 AVC Video / 3059 kbps / 1080p / 23,976 fps / 16:9 / High Profile 4.1
Последние тексты
Друг:
1) Качество: DVD Видео: NTSC 16:9 (72...
2) Общее Полное имя ...
3) Качество: DVD Видео: NTSC 16:9 (72...
4) Programma.Maksimum.(2011.10.22).201...
5) Качество: DVD Видео: NTSC 16:9 (72...
6) L:boyovukPiraty.Karibskogo.morya....
7) NTSC 16:9 (720x480) VBR - техническ...
8) NTSC 16:9 (720x480) VBR - техническ...
9) Формат : ...
10) Super.8.2011.x264.BDRip.1080p.mkv...
Спонсор:
Счётчики
Помощь проекту:

Скриншоты

Показать сообщения:    

Текущее время: 19-Окт 06:19

Часовой пояс: UTC - 1


Вы не можете начинать темы
Вы не можете отвечать на сообщения
Вы не можете редактировать свои сообщения
Вы не можете удалять свои сообщения
Вы не можете голосовать в опросах
Вы не можете прикреплять файлы к сообщениям
Вы не можете скачивать файлы

!ВНИМАНИЕ!
Сайт не предоставляет электронные версии произведений, а занимается лишь коллекционированием и каталогизацией ссылок, присылаемых и публикуемых на форуме нашими читателями. Если вы являетесь правообладателем какого-либо представленного материала и не желаете, чтобы ссылка на него находилась в нашем каталоге, свяжитесь с нами, и мы незамедлительно удалим ее. Файлы для обмена на трекере предоставлены пользователями сайта, и администрация не несет ответственности за их содержание. Просьба не заливать файлы, защищенные авторскими правами, а также файлы нелегального содержания!