Важное объявление!
У Нас Все раздачи мультитрекерные, при нуле пиров в релизах, можете смело вставать на закачку!
 
Автор Сообщение

HUNTER

Стаж:
4 года 8 месяцев
Сообщений:
62034

Репутация: 101

[+] [-]
Вне форума [Профиль] [ЛС]

Рейдер
Жанр: Драма, криминал
Год выпуска: 2011
Продолжительность: 01:36:14
Выпущено:Россия / Продюсерская фирма Игоря Толстунова-Режиссёр: Всеволод Аравин
В ролях: Егор Бероев, Виталий Хаев, Екатерина Вилкова, Виктор Раков, Кирилл Плетнёв, Владимир Стеклов, Вячеслав Разбегаев, Валентина Талызина, Сергей Угрюмов, Роман Полянский
Описание: Рейдеры — охотники за большим бизнесом. Чтобы завладеть успешным предприятием, они идут на подделку документов, применение силы и даже убийства. Противостоять им невозможно… Очередной заказ могущественного рейдера Спирского — захватить научно-исследовательский институт. Смещенный с должности директор захваченного НИИ обращается за помощью к известному адвокату Павлову. Ситуация выходит из-под контроля рейдеров. Благодаря случайному знакомству с очаровательной Настей, Павлов узнает шокирующие факты о реальных причинах рейдерского захвата…- - -Качество видео: BDRip-720p
Формат видео: MKV
Видео: 1280х688 (1,860), 23.976 fps, ~ 5864 Kbit/s
Аудио: АС3, 48000 Hz, 6 каналов, 640 kbit/s-

MediaInfo

Общее
Уникальный идентификатор : 205306521154308899446871296671374680183 (0x9A74990202505EB283B41898BF5CA077)
Полное имя : D:\Reyder.2011.O.BDRip.720p.mkv
Формат : Matroska
Версия формата : Version 2
Размер файла : 4,37 Гбайт
Продолжительность : 1 ч. 36 м.
Общий поток : 6502 Кбит/сек
Дата кодирования : UTC 2011-10-23 05:10:13
Программа кодирования : mkvmerge v5.0.1 ('Es ist Sommer') built on Oct 9 2011 11:55:43
Библиотека кодирования : libebml v1.2.2 + libmatroska v1.3.0
Видео
Идентификатор : 1
Формат : AVC
Формат/Информация : Advanced Video Codec
Профиль формата : High@L4.1
Параметр CABAC формата : Да
Параметр ReFrames формата : 8 кадров
Идентификатор кодека : V_MPEG4/ISO/AVC
Продолжительность : 1 ч. 36 м.
Битрейт : 5864 Кбит/сек
Ширина : 1280 пикселей
Высота : 688 пикселей
Соотношение сторон : 1,860
Частота кадров : 23,976 кадра/сек
Цветовое пространство : YUV
Субдискретизация насыщенности : 4:2:0
Битовая глубина : 8 бит
Тип развёртки : Прогрессивная
Бит/(Пиксели*Кадры) : 0.278
Размер потока : 3,85 Гбайт (88%)
Библиотека кодирования : x264 core 118 r2085 8a62835
Настройки программы : cabac=1 / ref=8 / deblock=1:-3:-3 / analyse=0x3:0x133 / me=umh / subme=8 / psy=1 / psy_rd=1.00:0.15 / mixed_ref=1 / me_range=32 / chroma_me=1 / trellis=2 / 8x8dct=1 / cqm=0 / deadzone=21,11 / fast_pskip=0 / chroma_qp_offset=-3 / threads=6 / sliced_threads=0 / nr=0 / decimate=1 / interlaced=0 / bluray_compat=0 / constrained_intra=0 / bframes=6 / b_pyramid=2 / b_adapt=2 / b_bias=0 / direct=3 / weightb=1 / open_gop=0 / weightp=2 / keyint=250 / keyint_min=23 / scenecut=40 / intra_refresh=0 / rc_lookahead=60 / rc=2pass / mbtree=1 / bitrate=5864 / ratetol=1.0 / qcomp=0.65 / qpmin=10 / qpmax=51 / qpstep=4 / cplxblur=20.0 / qblur=0.5 / ip_ratio=1.40 / aq=2:0.80
Язык : English
Аудио
Идентификатор : 2
Формат : AC-3
Формат/Информация : Audio Coding 3
Расширение режима : CM (complete main)
Идентификатор кодека : A_AC3
Продолжительность : 1 ч. 36 м.
Вид битрейта : Постоянный
Битрейт : 640 Кбит/сек
Каналы : 6 каналов
Расположение каналов : Front: L C R, Side: L R, LFE
Частота : 48,0 КГц
Битовая глубина : 16 бит
Метод сжатия : С потерями
Размер потока : 441 Мбайт (10%)
Язык : Russian
Меню
00:00:00.000 : en:Chapter 01
00:06:06.949 : en:Chapter 02
00:10:57.823 : en:Chapter 03
00:16:49.091 : en:Chapter 04
00:24:01.314 : en:Chapter 05
00:29:54.083 : en:Chapter 06
00:36:11.878 : en:Chapter 07
00:42:08.234 : en:Chapter 08
00:48:07.759 : en:Chapter 09
00:55:06.177 : en:Chapter 10
01:01:33.898 : en:Chapter 11
01:06:47.461 : en:Chapter 12
01:12:34.058 : en:Chapter 13
01:18:07.808 : en:Chapter 14
01:25:37.423 : en:Chapter 15
01:32:50.940 : en:Chapter 16
01:36:14.226 : en:Chapter 17

Скриншот с названием

Скриншоты


_________________
Показать сообщения:    

Текущее время: Сегодня 07:51

Часовой пояс: GMT



Вы не можете начинать темы
Вы не можете отвечать на сообщения
Вы не можете редактировать свои сообщения
Вы не можете удалять свои сообщения
Вы не можете голосовать в опросах
Вы не можете прикреплять файлы к сообщениям
Вы не можете скачивать файлы
Наши партнеры: интернет магазин Ивановского трикотажа textilla.ru