Важное объявление!
У Нас Все раздачи мультитрекерные, при нуле пиров в релизах, можете смело вставать на закачку!
 
Автор Сообщение

HUNTER

Стаж:
4 года 7 месяцев
Сообщений:
61614

Репутация: 101

[+] [-]
Вне форума [Профиль] [ЛС]

Рейдер-
Жанр: драма, криминал
Год выпуска: 2011
Продолжительность: 01:36:14
Перевод: Не требуется
Cубтитры: нет
Оригинальная аудиодорожка: русский-Режиссер: Всеволод Аравин-В ролях: Егор Бероев, Виталий Хаев, Екатерина Вилкова, Виктор Раков, Кирилл Плетнёв, Владимир Стеклов, Вячеслав Разбегаев, Валентина Талызина, Сергей Угрюмов, Роман Полянский-Описание: Рейдеры — охотники за большим бизнесом. Чтобы завладеть успешным предприятием, они идут на подделку документов, применение силы и даже убийства. Противостоять им невозможно…
Очередной заказ могущественного рейдера Спирского — захватить научно-исследовательский институт. Смещенный с должности директор захваченного НИИ обращается за помощью к известному адвокату Павлову. Ситуация выходит из-под контроля рейдеров. Благодаря случайному знакомству с очаровательной Настей, Павлов узнает шокирующие факты о реальных причинах рейдерского захвата…- -Тип релиза: BDRip 1080p
Контейнер: MKV
Видео: MPEG-4 AVC / 14464 kbps / 1920х1030p / 23.976 fps / 16:9 / High Profile 4.1
Аудио: DTS / 1510 kbps / 5.1 ch. / 48 kHz / 16-bit-Сэмпл-

MediaInfo

Общее
Reyder.2011.BDRip.1080p.x264-boofer.mkv
Формат : Matroska
Версия формата : Version 2
Размер файла : 10,7 Гбайт
Продолжительность : 1 ч. 36 м.
Общий поток : 16,0 Мбит/сек
Название фильма : = boofer =
Дата кодирования : UTC 2011-10-28 18:40:34
Программа кодирования : mkvmerge v4.9.1 ('Ich will') сборка от Jul 11 2011 23:53:15
Библиотека кодирования : libebml v1.2.1 + libmatroska v1.1.1
Видео
Идентификатор : 1
Формат : AVC
Формат/Информация : Advanced Video Codec
Профиль формата : High@L4.1
Параметр CABAC формата : Да
Параметр ReFrames формата : 4 кадра
Идентификатор кодека : V_MPEG4/ISO/AVC
Продолжительность : 1 ч. 36 м.
Битрейт : 14,1 Мбит/сек
Ширина : 1920 пикселей
Высота : 1030 пикселей
Соотношение сторон : 1,864
Частота кадров : 23,976 кадра/сек
Цветовое пространство : YUV
Субдискретизация насыщенности : 4:2:0
Битовая глубина : 8 бит
Тип развёртки : Прогрессивная
Бит/(Пиксели*Кадры) : 0.298
Размер потока : 9,50 Гбайт (89%)
Библиотека кодирования : x264 core 116 r2074 2641b9e
Настройки программы : cabac=1 / ref=4 / deblock=1:-3:-3 / analyse=0x3:0x113 / me=umh / subme=11 / psy=1 / psy_rd=1.00:0.00 / mixed_ref=1 / me_range=32 / chroma_me=1 / trellis=2 / 8x8dct=1 / cqm=0 / deadzone=21,11 / fast_pskip=0 / chroma_qp_offset=-2 / threads=12 / sliced_threads=0 / nr=0 / decimate=1 / interlaced=0 / bluray_compat=0 / constrained_intra=0 / bframes=8 / b_pyramid=2 / b_adapt=2 / b_bias=0 / direct=3 / weightb=1 / open_gop=0 / weightp=2 / keyint=250 / keyint_min=24 / scenecut=40 / intra_refresh=0 / rc_lookahead=60 / rc=crf / mbtree=1 / crf=19.0 / qcomp=0.80 / qpmin=0 / qpmax=69 / qpstep=4 / vbv_maxrate=50000 / vbv_bufsize=50000 / crf_max=0.0 / nal_hrd=none / ip_ratio=1.40 / aq=1:1.00
Аудио
Идентификатор : 2
Формат : DTS
Формат/Информация : Digital Theater Systems
Идентификатор кодека : A_DTS
Продолжительность : 1 ч. 36 м.
Вид битрейта : Постоянный
Битрейт : 1510 Кбит/сек
Каналы : 6 каналов
Расположение каналов : Front: L C R, Side: L R, LFE
Частота : 48,0 КГц
Битовая глубина : 16 бит
Метод сжатия : С потерями
Размер потока : 1,01 Гбайт (9%)
Заголовок : DTS
Язык : Russian
Меню
00:00:00.000 : en:Chapter 01
00:06:06.949 : en:Chapter 02
00:10:57.823 : en:Chapter 03
00:16:49.091 : en:Chapter 04
00:24:01.314 : en:Chapter 05
00:29:54.083 : en:Chapter 06
00:36:11.878 : en:Chapter 07
00:42:08.234 : en:Chapter 08
00:48:07.759 : en:Chapter 09
00:55:06.177 : en:Chapter 10
01:01:33.898 : en:Chapter 11
01:06:47.461 : en:Chapter 12
01:12:34.058 : en:Chapter 13
01:18:07.808 : en:Chapter 14
01:25:37.423 : en:Chapter 15
01:32:50.940 : en:Chapter 16
01:36:14.226 : en:Chapter 17

Скриншоты


log x264

x264 [info]: frame I:798 Avg QP:15.27 size:258934
x264 [info]: frame P:26668 Avg QP:17.95 size:117618
x264 [info]: frame B:110977 Avg QP:18.92 size: 63850

_________________
Показать сообщения:    

Текущее время: Сегодня 17:14

Часовой пояс: GMT



Вы не можете начинать темы
Вы не можете отвечать на сообщения
Вы не можете редактировать свои сообщения
Вы не можете удалять свои сообщения
Вы не можете голосовать в опросах
Вы не можете прикреплять файлы к сообщениям
Вы не можете скачивать файлы
Наши партнеры: интернет магазин Ивановского трикотажа textilla.ru