Ивановский Торрент трекер
Яндекс.Погода
 

[Цитировать]
HUNTER

Регулировка металлопластиковых окон и дверей своими руками.--
Год: 2013

Страна:
Украина
Тематика: Ремонт/интерьер
Тип материала: Видеоурок-Продолжительность: 00:05:07
Автор: "Неизвестен"
Язык: Русский
Субтитры: Отсутствуют-Описание:
Практически все современные металлопластиковые окна со временем начинают сквозить (створка окна недостаточно прижимается к раме), и если Вы не в курсе – в механизме любого окна заложены функции его регулировки.-Качество: CAMRip
Формат:
mpg
Видео кодек: MPEG 2
Аудио кодек: MP2
Видео: 1920х 1080, 25.000 fps, 8259 Кбит/сек
Аудио: 48.0 KHz, 2 ch, 192 Кбит/сек-

MediaInfo:

Общее
Полное имя : D:\Download\regg_okonn.mpg
Формат : MPEG-PS
Размер файла : 316 Мбайт
Продолжительность : 5 м. 7 с.
Режим общего битрейта : Переменный
Общий поток : 8622 Кбит/сек
Видео
Идентификатор : 224 (0xE0)
Формат : MPEG Video
Версия формата : Version 2
Профиль формата : Main@Main
Параметр BVOP формата : Да
Параметр матрицы формата : По умолчанию
Параметр GOP формата : M=3, N=12
Продолжительность : 5 м. 7 с.
Вид битрейта : Переменный
Битрейт : 8259 Кбит/сек
Максимальный битрейт : 2519 Мбит/сек
Ширина : 1920 пикселей
Высота : 1080 пикселей
Соотношение сторон : 16:9
Частота кадров : 25,000 кадров/сек
Цветовое пространство : YUV
Субдискретизация насыщенности : 4:2:0
Битовая глубина : 8 бит
Тип развёртки : Прогрессивная
Метод сжатия : С потерями
Бит/(Пиксели*Кадры) : 0.159
TimeCode_FirstFrame : 00:00:00:00
TimeCode_Source : Group of pictures header
Размер потока : 303 Мбайт (96%)
Аудио
Идентификатор : 192 (0xC0)
Формат : MPEG Audio
Версия формата : Version 1
Профиль формата : Layer 2
Продолжительность : 5 м. 7 с.
Вид битрейта : Постоянный
Битрейт : 192 Кбит/сек
Каналы : 2 канала
Частота : 48,0 КГц
Метод сжатия : С потерями
Размер потока : 7,04 Мбайт (2%)

-

Скриншоты:

Показать сообщения:    

Текущее время: 22-Окт 18:02

Часовой пояс: UTC - 1


Вы не можете начинать темы
Вы не можете отвечать на сообщения
Вы не можете редактировать свои сообщения
Вы не можете удалять свои сообщения
Вы не можете голосовать в опросах
Вы не можете прикреплять файлы к сообщениям
Вы не можете скачивать файлы

!ВНИМАНИЕ!
Сайт не предоставляет электронные версии произведений, а занимается лишь коллекционированием и каталогизацией ссылок, присылаемых и публикуемых на форуме нашими читателями. Если вы являетесь правообладателем какого-либо представленного материала и не желаете, чтобы ссылка на него находилась в нашем каталоге, свяжитесь с нами, и мы незамедлительно удалим ее. Файлы для обмена на трекере предоставлены пользователями сайта, и администрация не несет ответственности за их содержание. Просьба не заливать файлы, защищенные авторскими правами, а также файлы нелегального содержания!