Ивановский Торрент трекер
Яндекс.Погода
 

[Цитировать]
HUNTER

Ревущие двадцатые, или Судьба солдата в Америке / The Roaring Twenties
Страна: США
Жанр: фильм-нуар, триллер, драма, криминал
Год выпуска: 1939
Продолжительность: 01:46:37
Перевод 1: Профессиональный (многоголосый закадровый) - Film Prestige
Перевод 2: Профессиональный (многоголосый закадровый) - СТС
Перевод 3: Профессиональный (двухголосый закадровый) - РенТВ
Перевод 4: Авторский (одноголосый закадровый) - Михалев
Cубтитры: русские, английские
Оригинальная аудиодорожка: английский
Режиссер: Рауль Уолш / Raoul Walsh
В ролях: Джеймс Кэгни, Присцилла Лэйн, Хамфри Богарт, Глэдис Джордж, Джеффри Линн, Фрэнк МакХью, Пол Келли, Элизабет Рисдон, Эдвард Кин, Джо Сойер
Описание: Шли «ревущие 20-е» годы, время, когда спор решали пулями, а автоматные очереди все чаще нарушали тишину улиц. Вернувшиеся в Чикаго по окончании Первой мировой войны, Джордж и Эдди начинают сколачивать свои капиталы, торгуя контрабандным спиртным и организовав крупную банду.
Их рэкет процветает, пока «здоровая» конкуренция не вмешивается в их дружбу. Выясняется, что уложить всех вокруг себя гораздо проще, чем договориться…
Доп. информация:


За дорожку с переводом Film Prestige спасибо Гостю
За переводы СТС и РенТВ спасибо dooctoor
За Михалева спасибо PUNCHLINE79797 (к сожалению, дорожка неважного качества)
Сэмпл: http://sendfile.su/1042895
Тип релиза: WEB-DL 720p
Контейнер: MKV
Видео: AVC, 954x720, L3.1, 23.976fps, 4134kbps
Аудио 1: Russian: AC3, 48000Hz, 2ch, 192kbps - Film Prestige
Аудио 2: Russian: AC3, 48000Hz, 2ch, 192kbps - СТС
Аудио 3: Russian: AC3, 48000Hz, 2ch, 192kbps - РенТВ
Аудио 4: Russian: AC3, 48000Hz, 2ch, 192kbps - Михалев
Аудио 5: English: AC3, 48000Hz, 2ch, 192kbps - DVD
Аудио 6: English: AAC, 48000Hz, 2ch, 117kbps - WEB-DL
Аудио 7: English: AC3, 48000Hz, 1ch, 192kbps - commentary by Lincoln Hurst
Формат субтитров: softsub (SRT)

MediaInfo

Общее
Уникальный идентификатор : 227694293385486026417937084452194271530 (0xAB4C53664CBB20FFBDBF7E343DB8C12A)
Полное имя : T:\The Roaring Twenties (WEB-DL 720p).mkv
Формат : Matroska
Версия формата : Version 4 / Version 2
Размер файла : 4,02 Гбайт
Продолжительность : 1 ч. 46 м.
Общий поток : 5404 Кбит/сек
Дата кодирования : UTC 2014-11-01 12:22:24
Программа кодирования : mkvmerge v6.9.1 ('Blue Panther') 64bit built on Apr 18 2014 18:23:38
Библиотека кодирования : libebml v1.3.0 + libmatroska v1.4.1
Видео
Идентификатор : 1
Формат : AVC
Формат/Информация : Advanced Video Codec
Профиль формата : Main@L3.1
Параметр CABAC формата : Нет
Параметр ReFrames формата : 2 кадра
Идентификатор кодека : V_MPEG4/ISO/AVC
Продолжительность : 1 ч. 46 м.
Ширина : 954 пикселя
Высота : 720 пикселей
Соотношение сторон : 4:3
Режим частоты кадров : Постоянный
Частота кадров : 23,976 кадра/сек
Цветовое пространство : YUV
Субдискретизация насыщенности : 4:2:0
Битовая глубина : 8 бит
Тип развёртки : Прогрессивная
Язык : English
Default : Да
Forced : Нет
Основные цвета : BT.709
Характеристики трансфера : BT.709
Коэффициенты матрицы : BT.709
Аудио #1
Идентификатор : 2
Формат : AC-3
Формат/Информация : Audio Coding 3
Расширение режима : CM (complete main)
Параметр Endianness формата : Big
Идентификатор кодека : A_AC3
Продолжительность : 1 ч. 46 м.
Вид битрейта : Постоянный
Битрейт : 192 Кбит/сек
Каналы : 2 канала
Расположение каналов : Front: L R
Частота : 48,0 КГц
Битовая глубина : 16 бит
Метод сжатия : С потерями
Размер потока : 146 Мбайт (4%)
Заголовок : Film Prestige
Язык : Russian
Default : Да
Forced : Нет
Аудио #2
Идентификатор : 3
Формат : AC-3
Формат/Информация : Audio Coding 3
Расширение режима : CM (complete main)
Параметр Endianness формата : Big
Идентификатор кодека : A_AC3
Продолжительность : 1 ч. 46 м.
Вид битрейта : Постоянный
Битрейт : 192 Кбит/сек
Каналы : 2 канала
Расположение каналов : Front: L R
Частота : 48,0 КГц
Битовая глубина : 16 бит
Метод сжатия : С потерями
Размер потока : 146 Мбайт (4%)
Заголовок : СТС
Язык : Russian
Default : Нет
Forced : Нет
Аудио #3
Идентификатор : 4
Формат : AC-3
Формат/Информация : Audio Coding 3
Расширение режима : CM (complete main)
Параметр Endianness формата : Big
Идентификатор кодека : A_AC3
Продолжительность : 1 ч. 46 м.
Вид битрейта : Постоянный
Битрейт : 192 Кбит/сек
Каналы : 2 канала
Расположение каналов : Front: L R
Частота : 48,0 КГц
Битовая глубина : 16 бит
Метод сжатия : С потерями
Размер потока : 146 Мбайт (4%)
Заголовок : РенТВ
Язык : Russian
Default : Нет
Forced : Нет
Аудио #4
Идентификатор : 5
Формат : AC-3
Формат/Информация : Audio Coding 3
Расширение режима : CM (complete main)
Параметр Endianness формата : Big
Идентификатор кодека : A_AC3
Продолжительность : 1 ч. 46 м.
Вид битрейта : Постоянный
Битрейт : 192 Кбит/сек
Каналы : 2 канала
Расположение каналов : Front: L R
Частота : 48,0 КГц
Битовая глубина : 16 бит
Метод сжатия : С потерями
Размер потока : 146 Мбайт (4%)
Заголовок : Михалев
Язык : Russian
Default : Нет
Forced : Нет
Аудио #5
Идентификатор : 6
Формат : AC-3
Формат/Информация : Audio Coding 3
Расширение режима : CM (complete main)
Параметр Endianness формата : Big
Идентификатор кодека : A_AC3
Продолжительность : 1 ч. 46 м.
Вид битрейта : Постоянный
Битрейт : 192 Кбит/сек
Каналы : 2 канала
Расположение каналов : Front: L R
Частота : 48,0 КГц
Битовая глубина : 16 бит
Метод сжатия : С потерями
Размер потока : 146 Мбайт (4%)
Заголовок : DVD
Язык : English
Default : Нет
Forced : Нет
Аудио #6
Идентификатор : 7
Формат : AAC
Формат/Информация : Advanced Audio Codec
Профиль формата : LC
Идентификатор кодека : A_AAC
Продолжительность : 1 ч. 46 м.
Каналы : 2 канала
Расположение каналов : Front: L R
Частота : 48,0 КГц
Метод сжатия : С потерями
Заголовок : WEB-DL
Язык : English
Default : Нет
Forced : Нет
Аудио #7
Идентификатор : 8
Формат : AC-3
Формат/Информация : Audio Coding 3
Расширение режима : CM (complete main)
Параметр Endianness формата : Big
Идентификатор кодека : A_AC3
Продолжительность : 1 ч. 46 м.
Вид битрейта : Постоянный
Битрейт : 192 Кбит/сек
Каналы : 1 канал
Расположение каналов : Front: C
Частота : 48,0 КГц
Битовая глубина : 16 бит
Метод сжатия : С потерями
Размер потока : 146 Мбайт (4%)
Заголовок : commentary by Lincoln Hurst
Язык : English
Default : Нет
Forced : Нет
Текст #1
Идентификатор : 9
Формат : UTF-8
Идентификатор кодека : S_TEXT/UTF8
Идентификатор кодека/Информация : UTF-8 Plain Text
Язык : Russian
Default : Нет
Forced : Нет
Текст #2
Идентификатор : 10
Формат : UTF-8
Идентификатор кодека : S_TEXT/UTF8
Идентификатор кодека/Информация : UTF-8 Plain Text
Язык : English
Default : Нет
Forced : Нет
Меню
00:00:00.000 : en:Chapter 1
00:01:54.000 : en:Chapter 2
00:08:30.000 : en:Chapter 3
00:12:59.000 : en:Chapter 4
00:17:13.000 : en:Chapter 5
00:20:40.000 : en:Chapter 6
00:24:27.000 : en:Chapter 7
00:30:50.000 : en:Chapter 8
00:34:57.000 : en:Chapter 9
00:41:01.000 : en:Chapter 10
00:44:33.000 : en:Chapter 11
00:48:35.000 : en:Chapter 12
00:50:36.000 : en:Chapter 13
00:52:14.000 : en:Chapter 14
00:57:39.000 : en:Chapter 15
01:02:51.000 : en:Chapter 16
01:05:22.000 : en:Chapter 17
01:07:20.000 : en:Chapter 18
01:10:31.000 : en:Chapter 19
01:14:24.000 : en:Chapter 20
01:17:15.000 : en:Chapter 21
01:20:44.000 : en:Chapter 22
01:25:05.000 : en:Chapter 23
01:28:17.000 : en:Chapter 24
01:32:15.000 : en:Chapter 25
01:35:03.000 : en:Chapter 26
01:39:35.000 : en:Chapter 27
01:44:14.000 : en:Chapter 28
01:45:52.000 : en:Chapter 29

Скриншоты

Показать сообщения:    

Текущее время: 20-Сен 22:52

Часовой пояс: UTC - 1


Вы не можете начинать темы
Вы не можете отвечать на сообщения
Вы не можете редактировать свои сообщения
Вы не можете удалять свои сообщения
Вы не можете голосовать в опросах
Вы не можете прикреплять файлы к сообщениям
Вы не можете скачивать файлы

!ВНИМАНИЕ!
Сайт не предоставляет электронные версии произведений, а занимается лишь коллекционированием и каталогизацией ссылок, присылаемых и публикуемых на форуме нашими читателями. Если вы являетесь правообладателем какого-либо представленного материала и не желаете, чтобы ссылка на него находилась в нашем каталоге, свяжитесь с нами, и мы незамедлительно удалим ее. Файлы для обмена на трекере предоставлены пользователями сайта, и администрация не несет ответственности за их содержание. Просьба не заливать файлы, защищенные авторскими правами, а также файлы нелегального содержания!