Ивановский Торрент трекер
Яндекс.Погода
 

[Цитировать]
HUNTER

---Революция--"Revolution"--«15 years after the blackout...they will light the way.»-- --Страна: США
Год выпуска: 2012-2013
Жанр: Драма, фантастика
Продолжительность: 00:43:24
Перевод: Профессиональный (многоголосый закадровый) [LostFilm]
Русские субтитры: нет--Режиссёр: Стив Бойум, Джон Фавро
В ролях: Билли Бёрк, Шэйн Каллахан, Кен Арнольд, Джанкарло Эспозито, Тим Гини, Уильям Хатчингс, Элизабет Митчелл, Даниелла Алонсо, Мария Хауэлл, Зак Орт, Дж.Д. Пардо, Майкл Дьюсенберг, Майк Холмс, Трэйси Спиридакос--Описание:
Вся наша жизнь зависит от электричества. Что же произойдет, если оно внезапно исчезнет? Однажды, словно по щелчку выключателя, весь мир был отброшен в темные века. Самолеты падали с небес, больницы лишались энергообеспечения, связь стала невозможной. Теперь, без всех современных технологий, кто же ответит, почему? Через 15 лет после бедствия, жизнь стала такой, какой она была до промышленной революции: семьи живут на глухих улочках, с заходом солнца зажигают фонари и свечи. Жизнь стала спокойнее и лучше. Но так ли это? За пределами небольших фермерских общин все еще таится опасность. Так жизнь молодой девушки резко меняется, когда местная милиция убивает ее отца, который каким-то неведомым для дочери образом имел связь с отключением. Это событие заставляет ее вместе с двумя спутниками отправиться в смелое путешествие, чтобы найти правду о прошлом в надежде изменить будущее.----Качество: WEB-DLRip 720
Формат: MKV
Видео кодек: H264
Аудио кодек: AC3
Видео: MPEG4, 16:9, 1280x720, 4 041 Кбит/сек, 23.976 кадра/сек
Аудио №1: Russian; Dolby AC3 384 Kbps, 44 KHz, 2ch - [LostFilm]
Аудио №2: English; Dolby AC3 384 Kbps, 48 KHz, 2ch - [Original]

Рейтинг

|

Список серий

1. Pilot / Пилот
2. Chained Heat / Ярость на цепи
3. No Quarter / Никакой пощады
4. The Plague Dogs / Цепные псы
5. Soul Train / Поезд мертвых душ
6. Sex and Drugs / Секс и наркотики
7. The Children’s Crusade / Крестовый поход детей
8. Ties That Bind / Кровные узы
9. Kashmir / Кашмир
10. Nobody's Fault But Mine / Только моя вина
11. The Stand / Удержать позицию
12. Ghosts / Призраки
13. The Song Remains the Same / Старая песня о главном
14. The Night the Lights Went Out in Georgia / Ночь, когда в Джорджии погасли огни
15. Home / Дом
16. The Love Boat / Лодка любви
17. The Longest Day / Самый длинный день
18. Clue / Улика
19. Children of Men / Дети человеческие
20. The Dark Tower / Темная башня

Media Info

Код: copyText_writeLink('this.parentNode.parentNode.nextSibling.nextSibling');
General
Complete name : Revolution.S01E01.HD.rus.LostFilm.TV.mkv
Format : Matroska
Format version : Version 2
File size : 1.46 GiB
Duration : 43mn 24s
Overall bit rate : 4 810 Kbps
Encoded date : UTC 2012-09-23 13:50:06
Video
ID : 1
Format : AVC
Format/Info : Advanced Video Codec
Format profile : High @ L3.1
Format settings, CABAC : Yes
Format settings, ReFrames : 4 frames
Codec ID : V_MPEG4/ISO/AVC
Duration : 43mn 24s
Bit rate : 4 041 Kbps
Width : 1 280 pixels
Height : 720 pixels
Display aspect ratio : 16:9
Frame rate mode : Constant
Frame rate : 23.976 fps
Color space : YUV
Chroma subsampling : 4:2:0
Bit depth : 8 bits
Scan type : Progressive
Bits/(Pixel*Frame) : 0.183
Stream size : 1.20 GiB (82%)
Writing library : x264
Default : Yes
Forced : No
Audio #1
ID : 2
Format : AC-3
Format/Info : Audio Coding 3
Mode extension : CM (complete main)
Format settings, Endianness : Big
Codec ID : A_AC3
Duration : 43mn 24s
Bit rate mode : Constant
Bit rate : 384 Kbps
Channel(s) : 2 channels
Channel positions : Front: L R
Sampling rate : 44.1 KHz
Bit depth : 16 bits
Compression mode : Lossy
Stream size : 119 MiB (8%)
Default : Yes
Forced : No
Audio #2
ID : 3
Format : AC-3
Format/Info : Audio Coding 3
Mode extension : CM (complete main)
Format settings, Endianness : Big
Codec ID : A_AC3
Duration : 43mn 24s
Bit rate mode : Constant
Bit rate : 384 Kbps
Channel(s) : 2 channels
Channel positions : Front: L R
Sampling rate : 48.0 KHz
Bit depth : 16 bits
Compression mode : Lossy
Stream size : 119 MiB (8%)
Default : No
Forced : No

Скриншоты

*Добавлена 20-я серия!
*ФИНАЛ 1-ГО СЕЗОНА

Внимание! Раздача ведётся путём добавления новых серий!

Раздача ведётся путём добавления новых серий, при каждом добавлении создётся новый торрент. Чтобы начать докачку новой серии, пользователям необходимо сделать следующее:
(1) остановить скачивание,
(2) удалить старый торрент у себя из клиента (старые серии удалять не надо),
(3) скачать новый торрент и запустить его у себя в клиенте вместо старого, при этом указать клиенту путь в старую папку куда и должно происходить скачивание новых серий.
Ваш клиент при этом должен произвести хеширование (проверку) старой папки (если не производит сам - помогите ему сделать это), и будет докачивать только те серии которых у вас ещё нет. Старые серии при этом не удаляются, а продолжают раздаваться!
Eсли вы уже удалили старые серии, то предотвратить повторную закачку старых серий можно, отжав галочку в соответсвующих местах при запуске нового торрента.
---Мои раздачи--- --По ночам не рaздаю!---
Показать сообщения:    

Текущее время: 17-Окт 10:40

Часовой пояс: UTC - 1


Вы не можете начинать темы
Вы не можете отвечать на сообщения
Вы не можете редактировать свои сообщения
Вы не можете удалять свои сообщения
Вы не можете голосовать в опросах
Вы не можете прикреплять файлы к сообщениям
Вы не можете скачивать файлы

!ВНИМАНИЕ!
Сайт не предоставляет электронные версии произведений, а занимается лишь коллекционированием и каталогизацией ссылок, присылаемых и публикуемых на форуме нашими читателями. Если вы являетесь правообладателем какого-либо представленного материала и не желаете, чтобы ссылка на него находилась в нашем каталоге, свяжитесь с нами, и мы незамедлительно удалим ее. Файлы для обмена на трекере предоставлены пользователями сайта, и администрация не несет ответственности за их содержание. Просьба не заливать файлы, защищенные авторскими правами, а также файлы нелегального содержания!