Ивановский Торрент трекер
Яндекс.Погода
 

[Цитировать]
HUNTER

Ребенку дают слабительное / On purge bebe
Страна: Франция
Жанр: комедия
Год выпуска: 1931
Продолжительность: 00:52:02
Перевод: Субтитры
Cубтитры: русские, английские
Оригинальная аудиодорожка: французский-Режиссер: Жан Ренуар / Jean Renoir
В ролях: Маргерит Пьерри, Жак Лувиньи, Мишель Симон, Ольга Валери, Николь Фернандез, Фернандель, Саша Таррид
Описание: Фильм снят по пьесе Жоржа Фейдо.
У господина Фоллавуан, владельца фарфоровой фабрики, появился шанс стать несметно богатым. Он узнал, что правительство решило облегчить участь солдат, создав им максимальные удобства, и, в частности, обеспечить каждого персональным ночным горшком. Чтобы получить крупный контракт на поставку в армию предмета первой необходимости, предприимчивый делец пригласил в гости влиятельного чиновника военного ведомства, господина Шуйю. Но жена-скандалистка Жюли и вредный семилетний сын Тото поставили планы Фоллавуана под угрозу…
IMDb || КиноПоиск-Тип релиза: BDRemux 1080p
Контейнер: MKV
Видео: MPEG-4 AVC Video, 1920x1080 at 23.976 fps, 17 Mbps
Аудио: French: 48 kHz, AC3, 1.0 ch, 192 kbps
Формат субтитров: softsub (SRT)
Сэмпл

MediaInfo

General
Unique ID : 191959050148437341220153127770342965961 (0x9069F7E10C21C2079605A3DB2E9A42C9)
Complete name : On purge bebe.1931.Criterion.BDRemux.rutracker.mkv
Format : Matroska
Format version : Version 2
File size : 6.24 GiB
Duration : 52mn 1s
Overall bit rate mode : Variable
Overall bit rate : 17.2 Mbps
Movie name : Release for RuTracker
Writing application : mkvmerge v5.0.1 ('Es ist Sommer') built on Nov 6 2011 16:23:40
Writing library : libebml v1.2.2 + libmatroska v1.3.0
Video
ID : 1
Format : AVC
Format/Info : Advanced Video Codec
Format profile : High@L4.1
Format settings, CABAC : Yes
Format settings, ReFrames : 4 frames
Codec ID : V_MPEG4/ISO/AVC
Duration : 52mn 1s
Bit rate mode : Variable
Bit rate : 16.6 Mbps
Maximum bit rate : 37.0 Mbps
Width : 1 920 pixels
Height : 1 080 pixels
Display aspect ratio : 16:9
Frame rate mode : Constant
Frame rate : 23.976 fps
Color space : YUV
Chroma subsampling : 4:2:0
Bit depth : 8 bits
Scan type : Progressive
Bits/(Pixel*Frame) : 0.335
Stream size : 6.05 GiB (97%)
Title : On purge bebe.1931.Criterion.BDRemux.rutracker
Language : French
Default : Yes
Forced : No
Audio
ID : 2
Format : AC-3
Format/Info : Audio Coding 3
Mode extension : CM (complete main)
Format settings, Endianness : Big
Codec ID : A_AC3
Duration : 52mn 1s
Bit rate mode : Constant
Bit rate : 192 Kbps
Channel(s) : 1 channel
Channel positions : Front: C
Sampling rate : 48.0 KHz
Bit depth : 16 bits
Compression mode : Lossy
Stream size : 71.5 MiB (1%)
Language : French
Default : Yes
Forced : No
Text #1
ID : 3
Format : UTF-8
Codec ID : S_TEXT/UTF8
Codec ID/Info : UTF-8 Plain Text
Language : Russian
Default : Yes
Forced : No
Text #2
ID : 4
Format : UTF-8
Codec ID : S_TEXT/UTF8
Codec ID/Info : UTF-8 Plain Text
Language : English
Default : No
Forced : No

Скриншоты

Показать сообщения:    

Текущее время: 22-Окт 21:58

Часовой пояс: UTC - 1


Вы не можете начинать темы
Вы не можете отвечать на сообщения
Вы не можете редактировать свои сообщения
Вы не можете удалять свои сообщения
Вы не можете голосовать в опросах
Вы не можете прикреплять файлы к сообщениям
Вы не можете скачивать файлы

!ВНИМАНИЕ!
Сайт не предоставляет электронные версии произведений, а занимается лишь коллекционированием и каталогизацией ссылок, присылаемых и публикуемых на форуме нашими читателями. Если вы являетесь правообладателем какого-либо представленного материала и не желаете, чтобы ссылка на него находилась в нашем каталоге, свяжитесь с нами, и мы незамедлительно удалим ее. Файлы для обмена на трекере предоставлены пользователями сайта, и администрация не несет ответственности за их содержание. Просьба не заливать файлы, защищенные авторскими правами, а также файлы нелегального содержания!