Ивановский Торрент трекер
Яндекс.Погода
 

[Цитировать]
Shalun

«Жгут как в последний раз! Таких уже не делают»
Год выпуска: 2012
Производство: США / Lakeshore Entertainment, Lionsgate, Sidney Kimmel Entertainment
Жанр: Драма, комедия, криминал
Продолжительность: 01:34:58
Перевод: Профессиональный (полное дублирование) лицензия
Субтитры: Английские |отключаемые|
Навигация по главам: Есть-Режиссер: Фишер Стивенс
В ролях: Аль Пачино, Кристофер Уокен, Алан Аркин, Джулианна Маргулис, Марк Марголис, Люси Панч, Эддисон Тимлин, Ванесса Ферлито, Кэтрин Уинник, Билли Барр
О фильме:
История строится вокруг двух уже немолодых преступников, один из которых получил задание убить близкого друга. Столь непростая ситуация требует времени на обдумывание, и киллеры решают вместе с приятелем изрядно побуянить (включая посещение борделя, угон машин и бегство от полиции), прежде чем будет принято окончательное решение.
- -Качество: BDRip-AVC [Blu-Ray Remux]
Формат: MKV
Видео: H.264, 1056x440 (2.40:1), 23,976 fps, 1754 Кbps, 0.157 bit/pixel
Аудио#1: 48 kHz, AC3 Dolby Digital, 3/2 (L,C,R,l,r) + LFE ch, ~448.00 kbps avg | RUS
Аудио#2: 48 kHz, AC3 Dolby Digital, 3/2 (L,C,R,l,r) + LFE ch, ~448.00 kbps avg | ENG (отдельно на disk yandex.ru)
-

MI

Общее
Уникальный идентификатор : 235115392731680297867103319818237145059 (0xB0E193D8AAD4FAC396762AD117946FE3)
Полное имя : Real'nyje.Parni.2012.D.BDRip.x264.potroks.mkv
Формат : Matroska
Версия формата : Version 4 / Version 2
Размер файла : 1,46 Гбайт
Продолжительность : 1 ч. 34 м.
Общий поток : 2203 Кбит/сек
Название фильма : -=POTROKS=-
Дата кодирования : UTC 2013-04-14 09:57:10
Программа кодирования : mkvmerge v5.9.0 ('On The Loose') built on Dec 15 2012 16:39:58
Библиотека кодирования : libebml v1.3.0 + libmatroska v1.4.0
Видео
Идентификатор : 1
Формат : AVC
Формат/Информация : Advanced Video Codec
Профиль формата : High@L4.1
Параметр CABAC формата : Да
Параметр ReFrames формата : 11 кадров
Идентификатор кодека : V_MPEG4/ISO/AVC
Продолжительность : 1 ч. 34 м.
Битрейт : 1754 Кбит/сек
Ширина : 1056 пикселей
Высота : 440 пикселей
Соотношение сторон : 2,40:1
Режим частоты кадров : Постоянный
Частота кадров : 23,976 кадра/сек
Цветовое пространство : YUV
Субдискретизация насыщенности : 4:2:0
Битовая глубина : 8 бит
Тип развёртки : Прогрессивная
Бит/(Пиксели*Кадры) : 0.157
Размер потока : 1,14 Гбайт (78%)
Заголовок : Stand Up Guys
Библиотека кодирования : x264 core 125 r2208 d9d2288
Настройки программы : cabac=1 / ref=11 / deblock=1:-2:-2 / analyse=0x3:0x133 / me=umh / subme=11 / psy=1 / psy_rd=1.05:0.00 / mixed_ref=1 / me_range=32 / chroma_me=1 / trellis=2 / 8x8dct=1 / cqm=0 / deadzone=21,11 / fast_pskip=0 / chroma_qp_offset=-2 / threads=6 / lookahead_threads=1 / sliced_threads=0 / nr=0 / decimate=1 / interlaced=0 / bluray_compat=0 / constrained_intra=0 / bframes=12 / b_pyramid=2 / b_adapt=2 / b_bias=0 / direct=3 / weightb=1 / open_gop=0 / weightp=2 / keyint=240 / keyint_min=23 / scenecut=40 / intra_refresh=0 / rc_lookahead=150 / rc=2pass / mbtree=1 / bitrate=1754 / ratetol=1.0 / qcomp=0.70 / qpmin=0 / qpmax=69 / qpstep=4 / cplxblur=20.0 / qblur=0.5 / vbv_maxrate=20000 / vbv_bufsize=22500 / nal_hrd=none / ip_ratio=1.35 / aq=1:0.80
Язык : English
Default : Да
Forced : Нет
Аудио
Идентификатор : 2
Формат : AC-3
Формат/Информация : Audio Coding 3
Расширение режима : CM (complete main)
Параметр Endianness формата : Big
Идентификатор кодека : A_AC3
Продолжительность : 1 ч. 34 м.
Вид битрейта : Постоянный
Битрейт : 448 Кбит/сек
Каналы : 6 каналов
Расположение каналов : Front: L C R, Side: L R, LFE
Частота : 48,0 КГц
Битовая глубина : 16 бит
Метод сжатия : С потерями
Размер потока : 304 Мбайт (20%)
Заголовок : Dub | DD 5.1 @ 448 kbps
Язык : Russian
Default : Да
Forced : Нет
Текст
Идентификатор : 3
Формат : UTF-8
Идентификатор кодека : S_TEXT/UTF8
Идентификатор кодека/Информация : UTF-8 Plain Text
Язык : English
Default : Нет
Forced : Нет
Меню
00:00:00.000 : en:00:00:00.000
00:04:51.332 : en:00:04:51.332
00:08:54.283 : en:00:08:54.283
00:15:26.926 : en:00:15:26.926
00:23:22.651 : en:00:23:22.651
00:28:52.856 : en:00:28:52.856
00:32:13.056 : en:00:32:13.056
00:40:56.745 : en:00:40:56.745
00:47:59.042 : en:00:47:59.042
00:52:39.906 : en:00:52:39.906
00:59:48.668 : en:00:59:48.668
01:04:36.289 : en:01:04:36.289
01:11:03.717 : en:01:11:03.717
01:19:53.163 : en:01:19:53.163
01:24:09.461 : en:01:24:09.461
01:29:34.369 : en:01:29:34.369

log@x.264

x264 [info]: frame I:1151 Avg QP:15.97 size: 50939
x264 [info]: frame P:29238 Avg QP:17.50 size: 19578
x264 [info]: frame B:106229 Avg QP:20.17 size: 5814
x264 [info]: consecutive B-frames: 1.8% 1.8% 7.2% 22.8% 18.9% 39.1% 5.0% 2.1% 0.5% 0.3% 0.1% 0.1% 0.2%
x264 [info]: mb I I16..4: 11.0% 70.2% 18.7%
x264 [info]: mb P I16..4: 1.1% 8.8% 1.4% P16..4: 33.1% 34.2% 11.3% 1.6% 0.2% skip: 8.3%
x264 [info]: mb B I16..4: 0.1% 1.0% 0.2% B16..8: 32.3% 17.9% 2.5% direct: 5.9% skip:40.1% L0:42.0% L1:43.5% BI:14.5%
x264 [info]: 8x8 transform intra:76.0% inter:63.7%
x264 [info]: direct mvs spatial:98.1% temporal:1.9%
x264 [info]: coded y,uvDC,uvAC intra: 75.1% 72.3% 51.3% inter: 18.9% 22.0% 7.3%
x264 [info]: i16 v,h,dc,p: 34% 13% 5% 48%
x264 [info]: i8 v,h,dc,ddl,ddr,vr,hd,vl,hu: 14% 8% 11% 8% 12% 13% 11% 12% 12%
x264 [info]: i4 v,h,dc,ddl,ddr,vr,hd,vl,hu: 17% 9% 16% 7% 12% 12% 10% 9% 9%
x264 [info]: i8c dc,h,v,p: 42% 22% 20% 16%
x264 [info]: Weighted P-Frames: Y:4.1% UV:2.2%
x264 [info]: ref P L0: 44.7% 10.0% 18.0% 6.7% 5.5% 4.0% 3.6% 2.0% 1.9% 1.6% 1.7% 0.3% 0.0%
x264 [info]: ref B L0: 74.7% 10.5% 5.4% 2.8% 2.0% 1.7% 1.3% 0.8% 0.5% 0.3%
x264 [info]: ref B L1: 93.5% 6.5%
x264 [info]: kb/s:1753.04

Скриншоты

-


Показать сообщения:    

Текущее время: 13-Дек 20:55

Часовой пояс: UTC ± 0


Вы не можете начинать темы
Вы не можете отвечать на сообщения
Вы не можете редактировать свои сообщения
Вы не можете удалять свои сообщения
Вы не можете голосовать в опросах
Вы не можете прикреплять файлы к сообщениям
Вы не можете скачивать файлы

!ВНИМАНИЕ!
Сайт не предоставляет электронные версии произведений, а занимается лишь коллекционированием и каталогизацией ссылок, присылаемых и публикуемых на форуме нашими читателями. Если вы являетесь правообладателем какого-либо представленного материала и не желаете, чтобы ссылка на него находилась в нашем каталоге, свяжитесь с нами, и мы незамедлительно удалим ее. Файлы для обмена на трекере предоставлены пользователями сайта, и администрация не несет ответственности за их содержание. Просьба не заливать файлы, защищенные авторскими правами, а также файлы нелегального содержания!