Важное объявление!
У Нас Все раздачи мультитрекерные, при нуле пиров в релизах, можете смело вставать на закачку!
 
Автор Сообщение

димитри37

Стаж:
4 года
Сообщений:
1236

Репутация: 127

[+] [-]
Вне форума [Профиль] [ЛС]

«Реакция Вассермана»
Дата эфира: 27.04.-18.05.2013
Страна: Россия
Жанр: Документальный
Продолжительность: по ~26 мин.
Перевод: Не требуется
Русские субтитры: нет
Ведущие: Анатолий Вассерман и Егор Холмогоров
Описание: Мучают насущные вопросы? Пытаетесь разобраться, кто виноват и что делать? Хотите послушать того, кто все может разложить по полочкам? На НТВ — дискуссионная программа. Главные действующие лица — Анатолий Вассерман – человек, который знает все и обо всем. И политолог, журналист, публицист Егор Холмогоров. Взгляд на важнейшие события и главные темы недели под новым углом — в полемике известного редактора и блогера с самым популярным российским эрудитом. В чем они сойдутся, оценивая резонансные события, где едва не столкнутся лбами и какие неожиданные оценки дадут самым обсуждаемым темам последних дней — покажет «Реакция Вассермана».
Качество: SATRip
Формат: AVI
Видео: 704x432 (1.63:1), 25 fps, DivX 6.9.2 ~1479 kbps, 0.22 bit/pixel
Аудио: 48 kHz, MPEG Layer 3, 2 ch, ~128 kbps

MediaInfo:

Общее
Полное имя : F:\Torrents\Reakcija_Vassermana_(NTV)_[rutracker.org]\01_RVas-27.04.2013.avi
Формат : AVI
Формат/Информация : Audio Video Interleave
Размер файла : 299 Мбайт
Продолжительность : 25 м.
Общий поток : 1618 Кбит/сек
Программа кодирования : VirtualDubMod 1.6.0.0 SURROUND (build 2560/release)
Библиотека кодирования : VirtualDubMod build 2560/release
Видео
Идентификатор : 0
Формат : MPEG-4 Visual
Параметр BVOP формата : 1
Параметр QPel формата : Нет
Параметр GMC формата : Без точки перехода
Параметр матрицы формата : Default (H.263)
Режим смешивания : Сжатый битовый поток
Идентификатор кодека : DX50
Идентификатор кодека/Подсказка : DivX 5
Продолжительность : 25 м.
Битрейт : 1481 Кбит/сек
Ширина : 704 пикселя
Высота : 432 пикселя
Соотношение сторон : 5:4
Соотношение сторон в оригинале : 1,630
Частота кадров : 25,000 кадров/сек
Цветовое пространство : YUV
Субдискретизация насыщенности : 4:2:0
Битовая глубина : 8 бит
Тип развёртки : Прогрессивная
Метод сжатия : С потерями
Бит/(Пиксели*Кадры) : 0.195
Размер потока : 274 Мбайт (91%)
Библиотека кодирования : DivX 6.8.5 (UTC 2009-08-20)
Аудио
Идентификатор : 1
Формат : MPEG Audio
Версия формата : Version 1
Профиль формата : Layer 3
Режим : Joint stereo
Расширение режима : MS Stereo
Идентификатор кодека : 55
Идентификатор кодека/Подсказка : MP3
Продолжительность : 25 м.
Вид битрейта : Постоянный
Битрейт : 128 Кбит/сек
Каналы : 2 канала
Частота : 48,0 КГц
Метод сжатия : С потерями
Размер потока : 23,7 Мбайт (8%)
Выравнивание : Разделение по промежуткам
Продолжительность промежутка : 40 мс. (1,00 видеокадр)
Время предзагрузки промежутка : 500 мс.
Библиотека кодирования : LAME3.99r
Настройки программы : -m j -V 4 -q 3 -lowpass 17 -b 128

Скриншоты. Превью, увеличение по клику:

Список выпусков:

01-й выпуск. Реакция Вассермана. (эфир_27.04.2013):

В этом выпуске: Конфликт муфтия и протодьякона, православие в школе и однополые браки...
Имя файла: 01_RVas-27.04.2013.avi

02-й выпуск. Реакция Вассермана. (эфир_05.05.2013):

В этом выпуске: На этой неделе Егор Холмогоров и Анатолий Вассерман поговорят о проблемах с уборкой мусора, скандалах вокруг Дня Победы и аварийном состоянии дорог.
Имя файла: 02_RVas-05.05.2013.avi

03-й выпуск. Реакция Вассермана. (эфир_18.05.2013):

В этом выпуске: На этой неделе Анатолий Вассерман и Егор Холмогоров обсудят: фотоблог Рамзана Кадырова, шпионский скандал в центре Москвы и скрытую видеосъемку издевательств над животными в российских цирках.
Имя файла: 03_RVas-18.05.2013.avi

Раздача ведется добавлением новых выпусков:

Внимание! Раздача ведётся путём добавления новых выпусков; при каждом добавлении создаётся новый торрент.
Чтобы начать докачку нового выпуска, пользователям необходимо сделать следующее:
(1) остановить скачивание,
(2) удалить старый торрент у себя из клиента (старые выпуски удалять не надо),
(3) скачать новый торрент и запустить его у себя в клиенте вместо старого, при этом указать клиенту путь в старую папку куда и должно происходить скачивание новых выпусков.
Ваш клиент при этом должен произвести хеширование (проверку) старой папки (если не производит сам - помогите ему сделать это). В результате он будет докачивать только те выпуски, которых у Вас ещё нет. Старые выпуски при этом не удаляются, а продолжают раздаваться!
Eсли Вы уже удалили старые выпуски, то предотвратить их повторную закачку можно, сняв галочки в соответствующих местах при запуске нового торрента. По возможности, желательно не удалять старые выпуски как можно дольше, чтобы релизёр не только продолжал раздавать старые выпуски, но и смог сконцентрироваться на новых.
Как скачать отдельный файл из торрента можно прочитать здесь:
http://rutracker.org/forum/viewtopic.php?p=23322219#23322219
-
Показать сообщения:    

Текущее время: Сегодня 12:03

Часовой пояс: GMT



Вы не можете начинать темы
Вы не можете отвечать на сообщения
Вы не можете редактировать свои сообщения
Вы не можете удалять свои сообщения
Вы не можете голосовать в опросах
Вы не можете прикреплять файлы к сообщениям
Вы не можете скачивать файлы
Наши партнеры: интернет магазин Ивановского трикотажа textilla.ru