Важное объявление!
У Нас Все раздачи мультитрекерные, при нуле пиров в релизах, можете смело вставать на закачку!
 
Автор Сообщение

HUNTER

Стаж:
4 года 8 месяцев
Сообщений:
62050

Репутация: 101

[+] [-]
Вне форума [Профиль] [ЛС]

Рациональное мышление или как справиться со страхами, депрессией и агрессией (3,4,5,6 ч.)
Страна: Россия
Тематика: Обучающее видео
Тип раздаваемого материала: Видеоурок
Продолжительность: 02:47:41
Год выпуска: 2013
Язык: Русский
Перевод: Не требуется
Описание: Видео-тренинг создан для тех, кто желает справиться с негативными эмоциями: агрессией, страхами, депрессией, виной, стыдом, обидами...
Слушатели узнают о роли эмоциональных состояний в семье, в обществе, в реализации планов, в зависимостях и в жизни в целом.
Показаны причины появления данных эмоциональных состояний и некоторые способы работы с ними.
В тренинге представлены реальные консультации психолога по нескольким запросам.
Программа тренинга:
1 и 2 части не выкладываю, поскольку информация полностью дублируется в первых 15-ти минутах 3-й части. Если есть желание к просмотру, можно найти их на оф. сайте.
3 часть – О счастливой жизни; Как появляются негативные эмоции.
4 часть – Как появляются негативные эмоции; Кто несет ответственность за эмоции; Теория личности (поведения, мышления, эмоций); Консультация с Вадимом.
5 часть – Когнитивные карты (мыслительные карты): виды и способ создания; Результаты работы с Вадимом.
6 часть – Когнитивные ошибки (ошибки мышления).
Качество: HDRip 1080p
Формат: WMV
Видео кодек: VC-1
Аудио кодек: WMA
Видео: 1440x1080 (4:3), 29.97 fps, WMV9 ~ 364 kbps avg, 0.515 bit/pixel
Аудио: 48 kHz, WMA, 2 ch, ~128.00 kbps avg

MediaInfo

Общее
Формат : Windows Media
Размер файла : 105 Мбайт
Продолжительность : 40 м.
Режим общего битрейта : Постоянный
Общий поток : 364 Кбит/сек
Максимальный общий битрейт : 24,3 Мбит/сек
Дата кодирования : UTC 2013-05-25 11:29:07.161
Видео
Идентификатор : 1
Формат : VC-1
Профиль формата : Main
Идентификатор кодека : WMV3
Идентификатор кодека/Информация : Windows Media Video 9
Идентификатор кодека/Подсказка : WMV3
Описание кодека : Windows Media Video 9 - Professional
Продолжительность : 40 м.
Вид битрейта : Постоянный
Битрейт : 24,0 Мбит/сек
Ширина : 1440 пикселей
Высота : 1080 пикселей
Соотношение сторон : 4:3
Частота кадров : 29,970 кадров/сек
Цветовое пространство : YUV
Субдискретизация насыщенности : 4:2:0
Битовая глубина : 8 бит
Тип развёртки : Прогрессивная
Метод сжатия : С потерями
Бит/(Пиксели*Кадры) : 0.515
Размер потока : 6,74 Гбайт
Аудио
Идентификатор : 2
Формат : WMA
Профиль формата : Pro
Идентификатор кодека : 162
Идентификатор кодека/Информация : Windows Media Audio
Описание кодека : Windows Media Audio 10 Professional - 128 kbps, 48 kHz, 2 channel 16 bit (A/V) 1-pass CBR
Продолжительность : 40 м.
Вид битрейта : Постоянный
Битрейт : 128 Кбит/сек
Каналы : 2 канала
Частота : 48,0 КГц
Битовая глубина : 16 бит
Размер потока : 36,8 Мбайт (35%)

_________________
Показать сообщения:    

Текущее время: Сегодня 16:30

Часовой пояс: GMT



Вы не можете начинать темы
Вы не можете отвечать на сообщения
Вы не можете редактировать свои сообщения
Вы не можете удалять свои сообщения
Вы не можете голосовать в опросах
Вы не можете прикреплять файлы к сообщениям
Вы не можете скачивать файлы
Наши партнеры: интернет магазин Ивановского трикотажа textilla.ru