Ивановский Торрент трекер
Яндекс.Погода
 

[Цитировать]
HUNTER

Расчлененное тело / Body Parts«It will scare you... to pieces» Страна: США
Жанр: ужасы, триллер
Год выпуска: 1991
Продолжительность: 01:23:06
Перевод: Профессиональный (многоголосый закадровый)
Cубтитры: нет
Оригинальная аудиодорожка: английский
Режиссер: Эрик Ред / Eric Red
В ролях: Джефф Фэйи, Линдси Дункан, Ким Делани, Закес Мокае, Брэд Дуриф, Джон Уолш, Пол Бен-Виктор, Питер Мёрник, Натаниель Моро, Сара Кэмпбелл
Описание: Билл Крашанк — психолог — криминалист — попадает в страшную автокатастрофу, чудом остается жив, но теряет руку. В результате сложнейшей операции хирурги пришивают ему руку другого человека.
Но вскоре рука начинает жить своей собственной жизнью, восставая против жены Билла и его детей. Доведенный до отчаяния, Билл пытается выяснить, кто являлся хозяином этой руки, но ужасное открытие бросает его в мир невообразимого кошмара.
Сэмпл: http://multi-up.com/1119068

Тип релиза: HDTV 1080i
Контейнер: TS
Видео: AVC/H.264, PAL, 1920х1080 (16:9), 25 fps, 4160 Кбит/сек
Аудио 1: русский, MP2, 48000 Hz, 192 Кбит/сек, 2 ch
Аудио 2: английский, AC-3, 48000 Hz, 192 Кбит/сек, 2 ch

MediaInfo

Общее
Идентификатор : 1 (0x1)
Полное имя : D:\Раздачи\Расчленённое тело .ts
Формат : MPEG-TS
Размер файла : 2,78 Гбайт
Продолжительность : 1 ч. 23 м.
Режим общего битрейта : Переменный
Общий поток : 4784 Кбит/сек
Видео
Идентификатор : 513 (0x201)
Идентификатор меню : 1 (0x1)
Формат : AVC
Формат/Информация : Advanced Video Codec
Профиль формата : High@L4.0
Параметр CABAC формата : Да
Параметр ReFrames формата : 4 кадра
Идентификатор кодека : 27
Продолжительность : 1 ч. 23 м.
Вид битрейта : Переменный
Битрейт : 4160 Кбит/сек
Максимальный битрейт : 5000 Кбит/сек
Ширина : 1920 пикселей
Высота : 1080 пикселей
Соотношение сторон : 16:9
Режим частоты кадров : Переменный
Цветовое пространство : YUV
Субдискретизация насыщенности : 4:2:0
Битовая глубина : 8 бит
Тип развёртки : MBAFF
Порядок развёртки : Верхнее поле первое
Размер потока : 2,41 Гбайт (87%)
Аудио #1
Идентификатор : 514 (0x202)
Идентификатор меню : 1 (0x1)
Формат : MPEG Audio
Версия формата : Version 1
Профиль формата : Layer 2
Идентификатор кодека : 3
Продолжительность : 1 ч. 23 м.
Вид битрейта : Постоянный
Битрейт : 192 Кбит/сек
Каналы : 2 канала
Частота : 48,0 КГц
Метод сжатия : С потерями
Размер потока : 114 Мбайт (4%)
Аудио #2
Идентификатор : 515 (0x203)
Идентификатор меню : 1 (0x1)
Формат : AC-3
Формат/Информация : Audio Coding 3
Расширение режима : CM (complete main)
Параметр Endianness формата : Big
Идентификатор кодека : 129
Продолжительность : 1 ч. 23 м.
Вид битрейта : Постоянный
Битрейт : 192 Кбит/сек
Каналы : 2 канала
Расположение каналов : Front: L R
Частота : 48,0 КГц
Битовая глубина : 16 бит
Метод сжатия : С потерями
Размер потока : 114 Мбайт (4%)

Скриншот с названием фильма

Скриншоты

Показать сообщения:    

Текущее время: 24-Сен 02:19

Часовой пояс: UTC - 1


Вы не можете начинать темы
Вы не можете отвечать на сообщения
Вы не можете редактировать свои сообщения
Вы не можете удалять свои сообщения
Вы не можете голосовать в опросах
Вы не можете прикреплять файлы к сообщениям
Вы не можете скачивать файлы

!ВНИМАНИЕ!
Сайт не предоставляет электронные версии произведений, а занимается лишь коллекционированием и каталогизацией ссылок, присылаемых и публикуемых на форуме нашими читателями. Если вы являетесь правообладателем какого-либо представленного материала и не желаете, чтобы ссылка на него находилась в нашем каталоге, свяжитесь с нами, и мы незамедлительно удалим ее. Файлы для обмена на трекере предоставлены пользователями сайта, и администрация не несет ответственности за их содержание. Просьба не заливать файлы, защищенные авторскими правами, а также файлы нелегального содержания!