Важное объявление!
У Нас Все раздачи мультитрекерные, при нуле пиров в релизах, можете смело вставать на закачку!
Статистика раздачи
Размер:     |    Зарегистрирован:     |    Скачан:     |   
Нет
 
     
 
 
Автор Сообщение

HUNTER

Стаж:
5 лет 1 месяц
Сообщений:
68426

Репутация: 101

[+] [-]
Вне форума [Профиль] [ЛС]

-Расходный материал-The Removed-
Год выпуска: 2012
Страны: США
Жанры: ужасы, боевик, триллер
Продолжительность: 01:28:40
Перевод: Профессиональный (многоголосый) | НТВ+--Режиссер: Дэвид МакЭлрой
Сценарий: Дэвид МакЭлрой, Marc Menet
Продюсер: Тимоти Кристиан, Дэвид МакЭлрой, Marc Menet, ...
Оператор: Johnny Derango
Композитор: Дэйв Холден
Художник: Адри Сириватт, Jessica Feavel
Монтаж: Лаура Мадалиньский, Дэвид МакЭлрой-Субтитры: отсутствуют-В ролях:
Дэниэл Болдуин / Daniel Baldwin (Senator Davis), Филлип Эдвард Ван Леар / Phillip Edward Van Lear (Professor), Джон Турк / John Turk (Sanders), Майк МакНамара / Mike McNamara (Sgt. Moriarity), Уилл Клинджер / Will Clinger (Video Engineer), Аарон Криппен / Aaron Crippen (Sniper), Джейк Хэймс / Jake Hames (Jake), Майкл Чинн / Michael Chinn (Sgt. Johnson), Кирк Андерсон / Kirk Anderson (Dr. Detrick), Кристина Геддес / Kristina Cole (в титрах: Kristina Geddes) (Riley)- -Описание:
8 молодых людей соглашаются поучаствовать в экспериментах в научном центре за 1 000 $. Никто из них не задумывается о последствиях и не задает вопросов. Лишь одна девчонка беспокоится — она видела человека в противогазе. Вскоре подопытных вызывают в лабораторию, и начинается кошмар…-

Рейтинги

Рейтинг:

МедиаИнфо

General
Complete name : Rashodnyj.material.2012.P.SATRip.avi
Format : AVI
Format/Info : Audio Video Interleave
File size : 1.37 GiB
Duration : 1h 28mn
Overall bit rate : 2 206 Kbps
Writing application : VirtualDubMod 1.5.10.2 (build 2540/release)
Writing library : VirtualDubMod build 2540/release
Video
ID : 0
Format : MPEG-4 Visual
Format profile : Advanced Simple@L5
Format settings, BVOP : Yes
Format settings, QPel : No
Format settings, GMC : No warppoints
Format settings, Matrix : Custom
Codec ID : XVID
Codec ID/Hint : XviD
Duration : 1h 28mn
Bit rate : 2 005 Kbps
Width : 704 pixels
Height : 400 pixels
Display aspect ratio : 16:9
Frame rate : 25.000 fps
Color space : YUV
Chroma subsampling : 4:2:0
Bit depth : 8 bits
Scan type : Progressive
Bits/(Pixel*Frame) : 0.285
Stream size : 1.24 GiB (91%)
Writing library : XviD 1.2.1 (UTC 2008-12-04)
Audio
ID : 1
Format : MPEG Audio
Format version : Version 1
Format profile : Layer 3
Codec ID : 55
Codec ID/Hint : MP3
Duration : 1h 28mn
Bit rate mode : Constant
Bit rate : 192 Kbps
Channel(s) : 2 channels
Sampling rate : 48.0 KHz
Stream size : 122 MiB (9%)
Alignment : Aligned on interleaves
Interleave, duration : 40 ms (1.00 video frame)
Interleave, preload duration : 504 ms
Writing library : LAME3.99.5ЄЄЄЄЄЄЄЄЄЄ
-Качество: SATRip
Формат: AVI
Видео кодек: XviD
Аудио кодек: MP3
Видео: 704x400 (16:9), 25.000 fps, XviD, 2 005 Kbps
Аудио #1: MP3, 192 Kbps, 48.0 KHz, 2 ch

Трейлер

Скриншоты

--

_________________
Показать сообщения:    

Текущее время: Сегодня 18:29

Часовой пояс: GMT



Вы не можете начинать темы
Вы не можете отвечать на сообщения
Вы не можете редактировать свои сообщения
Вы не можете удалять свои сообщения
Вы не можете голосовать в опросах
Вы не можете прикреплять файлы к сообщениям
Вы не можете скачивать файлы