Важное объявление!
У Нас Все раздачи мультитрекерные, при нуле пиров в релизах, можете смело вставать на закачку!
 
Автор Сообщение

HUNTER

Стаж:
4 года 8 месяцев
Сообщений:
62034

Репутация: 101

[+] [-]
Вне форума [Профиль] [ЛС]

Air Crash Investigation / Mayday / Расследования авиакатастроф / сезон 16 (серии 01 из 10)
Год выпуска: 2016
Страна: Канада
Жанр: документальный
Продолжительность: ~ 00:44:00
Перевод: Профессиональный (двухголосый закадровый)
Русские субтитры: нет
Описание: Сериал о наиболее громких и загадочных катастрофах в истории гражданской авиации.
Наиболее полную информацию о сериале можно получить здесь List of Mayday episodes, для фанатов рекомендую именно этот сайт.
Есть русская, более лаконичная версия Список эпизодов телесериала «Расследования авиакатастроф»
Снимался канадской студией Cineflix в партнерстве с Discovery Channel (Canada), Canal D (Canada), and National Geographic Channel (US & International).
Доп. информация: Видеоматериал предоставил [url=profile.php?mode=viewprofile&u=5170497]StomperX[/url]
Сэмпл: https://www.sendspace.com/file/l834xi
Качество: DVB
формат: MPG
Видео: 720х576@1024х576 (1,78:1), 25 fps, mpeg2 ~2585 kbps avg, 0.249 bit/pixel
Аудио 1: Russian (48 KHz, MP2, 2 ch, ~192 Kbps) (двухголосый)
Аудио 2: English (48 KHz, MP2, 2 ch, ~192 Kbps) (двухголосый)

Список выпусков/серий

16-01. Мёртвая тишина (Deadly Silence)

MediaInfo

Общее
Полное имя : D:\КИНО\Air Crash Investigation season 16\16-01. Мёртвая тишина (Deadly Silence).mpg
Формат : MPEG-PS
Размер файла : 968 Мбайт
Продолжительность : 44 м.
Режим общего битрейта : Переменный
Общий поток : 3073 Кбит/сек
Видео
Идентификатор : 224 (0xE0)
Формат : MPEG Video
Версия формата : Version 2
Профиль формата : Main@Main
Параметр BVOP формата : Да
Параметр матрицы формата : По умолчанию
Параметр GOP формата : M=3, N=15
Продолжительность : 44 м.
Вид битрейта : Переменный
Битрейт : 2628 Кбит/сек
Максимальный битрейт : 2800 Кбит/сек
Ширина : 720 пикселей
Высота : 576 пикселей
Соотношение сторон : 16:9
Частота кадров : 25,000 кадров/сек
Стандарт вещания : PAL
Цветовое пространство : YUV
Субдискретизация насыщенности : 4:2:0
Битовая глубина : 8 бит
Тип развёртки : Чересстрочная
Порядок развёртки : Верхнее поле первое
Метод сжатия : С потерями
Бит/(Пиксели*Кадры) : 0.253
Временной код первого кадра : 00:00:00:00
Оригинал временного кода : Group of pictures header
Размер потока : 828 Мбайт (86%)
Аудио #1
Идентификатор : 192 (0xC0)
Формат : MPEG Audio
Версия формата : Version 1
Профиль формата : Layer 2
Продолжительность : 44 м.
Вид битрейта : Постоянный
Битрейт : 192 Кбит/сек
Каналы : 2 канала
Частота : 48,0 КГц
Метод сжатия : С потерями
Задержка видео : 18 мс.
Размер потока : 60,5 Мбайт (6%)
Аудио #2
Идентификатор : 193 (0xC1)
Формат : MPEG Audio
Версия формата : Version 1
Профиль формата : Layer 2
Продолжительность : 44 м.
Вид битрейта : Постоянный
Битрейт : 192 Кбит/сек
Каналы : 2 канала
Частота : 48,0 КГц
Метод сжатия : С потерями
Задержка видео : 18 мс.
Размер потока : 60,5 Мбайт (6%)

Скриншоты

[

Внимание! Раздача ведётся путём добавления новых выпусков

Внимание! Раздача ведётся путём добавления новых выпусков; при каждом добавлении создаётся новый торрент. Чтобы начать докачку нового выпуска, пользователям необходимо сделать следующее:
(1) остановить скачивание,
(2) удалить старый торрент у себя из клиента (старые серии удалять не надо),
(3) скачать новый торрент и запустить его у себя в клиенте вместо старого, при этом указать клиенту путь в старую папку куда и должно происходить скачивание новых выпусков.
Ваш клиент при этом должен произвести хеширование (проверку) старой папки (если не производит сам - помогите ему сделать это). В результате он будет докачивать только те выпуски, которых у Вас ещё нет. Старые выпуски при этом не удаляются, а продолжают раздаваться!
Eсли Вы уже удалили старые выпуски, то предотвратить их повторную закачку можно, сняв галочки в соответствующих местах при запуске нового торрента. По возможности, желательно не удалять старые выпуски как можно дольше, чтобы релизёр не только продолжал раздавать старые выпуски, но и смог сконцентрироваться на новых.

_________________
Показать сообщения:    

Текущее время: Сегодня 07:14

Часовой пояс: GMT



Вы не можете начинать темы
Вы не можете отвечать на сообщения
Вы не можете редактировать свои сообщения
Вы не можете удалять свои сообщения
Вы не можете голосовать в опросах
Вы не можете прикреплять файлы к сообщениям
Вы не можете скачивать файлы
Наши партнеры: интернет магазин Ивановского трикотажа textilla.ru