Важное объявление!
У Нас Все раздачи мультитрекерные, при нуле пиров в релизах, можете смело вставать на закачку!
Статистика раздачи
Размер:     |    Зарегистрирован:     |    Скачан:     |   
Нет
 
     
 
 
Автор Сообщение

palych74

Стаж:
4 года 11 месяцев
Сообщений:
80

Репутация: 21

[+] [-]
Вне форума [Профиль] [ЛС]

Раскрашенная кожа 2: Воскрешение / Painted Skin: The Resurrection
Страна: Китай
Жанр: Фэнтези, боевик, триллер, драма
Год выпуска: 2012
Продолжительность: 02:11:32-Перевод: Любительский (двухголосый закадровый) den904, DeadSno
Перевод на русский: Den Shark @ ORKBOY
Cубтитры: нет
Режиссер: Уэршань / Wuershan
В ролях: Чжоу Сюнь , Чэнь Кунь, Чжао Вэй-Описание: Чтобы стать смертным демон должен прожить на земле несколько сот лет, но и этого недостаточно, чтобы ощутить весь спектр человеческих эмоций и подлинную экзистенциальную грусть. Для получения этих бонусов демон должен найти человека, готового пожертвовать собственными чувствами и собственной бессмертной душой.-РЕЛИЗ ГРУППЫ - -Качество видео: BDRip (BD50)
Формат видео: AVI
Видео: XviD, 720x304 (2.37:1), 25 fps, 2102 kbps avg, 0.38 bit/pixel
Аудио: Русский, 48 KHz, MPEG layer 3, 128 kbps-

MediaInfo

Format : AVI
Format/Info : Audio Video Interleave
Format profile : OpenDML
File size : 2.06 GiB
Duration : 2h 11mn
Overall bit rate : 2 237 Kbps
Writing application : VirtualDubMod 1.5.10.2 (build 2540/release)
Writing library : VirtualDubMod build 2540/release
Video
ID : 0
Format : MPEG-4 Visual
Format profile : Advanced Simple@L5
Format settings, BVOP : No
Format settings, QPel : No
Format settings, GMC : No warppoints
Format settings, Matrix : Custom
Codec ID : XVID
Codec ID/Hint : XviD
Duration : 2h 11mn
Bit rate : 2 097 Kbps
Width : 720 pixels
Height : 304 pixels
Display aspect ratio : 2.35:1
Frame rate : 25.000 fps
Color space : YUV
Chroma subsampling : 4:2:0
Bit depth : 8 bits
Scan type : Progressive
Compression mode : Lossy
Bits/(Pixel*Frame) : 0.383
Stream size : 1.93 GiB (94%)
Writing library : XviD 1.0.2 (UTC 2004-08-29)
Audio
ID : 1
Format : MPEG Audio
Format version : Version 1
Format profile : Layer 3
Mode : Joint stereo
Mode extension : MS Stereo
Codec ID : 55
Codec ID/Hint : MP3
Duration : 2h 11mn
Bit rate mode : Constant
Bit rate : 128 Kbps
Channel(s) : 2 channels
Sampling rate : 48.0 KHz
Compression mode : Lossy
Stream size : 120 MiB (6%)
Alignment : Aligned on interleaves
Interleave, duration : 40 ms (1.00 video frame)
Interleave, preload duration : 504 ms

Скриншот c названием фильма

Скриншоты






Показать сообщения:    

Текущее время: Сегодня 20:49

Часовой пояс: GMT



Вы не можете начинать темы
Вы не можете отвечать на сообщения
Вы не можете редактировать свои сообщения
Вы не можете удалять свои сообщения
Вы не можете голосовать в опросах
Вы не можете прикреплять файлы к сообщениям
Вы не можете скачивать файлы