Ивановский Торрент трекер
Яндекс.Погода
 

[Цитировать]
HUNTER

| Все релизы мультфильма || BDRip 1080p, 12.81 GB |- P R E S E N T SРапунцель: Запутанная история / Tangled- Страна: США
Жанр: мультфильм, мюзикл, приключения, семейный
Продолжительность: 01:40:57
Год выпуска: 2010
Перевод 1: Профессиональный (полное дублирование)
Перевод 2: Профессиональный (двухголосый закадровый) "Кубик в Кубе"
Перевод 3: Авторский (одноголосый закадровый) Юрий Сербин
Перевод 4: Авторский (одноголосый закадровый) Андрей Гаврилов | 1-я версия
Перевод 5: Авторский (одноголосый закадровый) Андрей Гаврилов | 2-я версия
Субтитры: есть-Режиссёр: Натан Грено, Байрон Ховард / Nathan Greno, Byron Howard
Роли озвучивали: Мэнди Мур, Закари Левай, Донна Мерфи, Рон Перлман, М. К. Гейни, Джеффри Тэмбор, Брэд Гэрред, Пол Ф. Томпкинс, Ричард Кил, Делани Роуз Стейн, Натан Грено, Байрон Ховард, Тим Мертенс, Майкл Белл...
Роли дублировали: Виктория Дайнеко, Григорий Антипенко, Андрей Бирин, Мария Кац, Арман Хачатрян, Денис Некрасов, Антон Эльдаров, Владимир Майсурадзе, Антон Батырев, Александра Ахметзянова и др.- | | -Описание: Обаятельный разбойник Флинн путешествует по жизни с легкостью, лишь потому, что он красив, болтлив и удачлив. И, казалось, фортуна всегда на его стороне, пока однажды он не выбирает высокую башню в густой чаще леса в качестве «спокойного» убежища. Флинн оказывается связанным по рукам и ногам юной красавицей по имени Рапунцель. Если вы думаете, что самое интересное в ней - это 21 метр волшебных золотистых волос, то вы заблуждаетесь! Запертая в башне и отчаянно ищущая приключений, Рапунцель решает использовать Флинна в качестве билета в большой мир. Сначала комичное похищение, затем невинный шантаж - и вот наши герои на воле. Вместе с главными героями в авантюрное путешествие отправятся бравый конь-ищейка Максимус, ручной хамелеон и шайка сумасбродных разбойников...-Доп. информация: BDRip 1080p сделан с Blu-Ray диска Tangled (2010) Blu-ray CEE 1080p AVC DD5.1-HDClub (Локализованный видеоряд).
Отдельное спасибо xfiles за подготовку русских и украинских субтитров.
-Сэмпл/Sample (109 MB, 1 минута)-Качество: BDRip 1080p
Формат: MKV
Видео: 1920x1080 (1.778:1), 23,976 fps, ~9338 kbps avg, 0.188 bit/pixel
Аудио #1: Русский, AC3, 6 ch, 48 kHz, 640 kbps - Дубляж | BD CEE
Аудио #2: Русский, DTS / 5.1 / 48 kHz / 1509 kbps / 24 bit - DVO | "Кубик в Кубе"
Аудио #3: Русский, DTS / 5.1 / 48 kHz / 1509 kbps / 24 bit - AVO | Юрий Сербин
Аудио #4: Русский, DTS / 5.1 / 48 kHz / 1509 kbps / 24 bit - АVO | Андрей Гаврилов | 1-я версия
Аудио #5: Русский, DTS / 5.1 / 48 kHz / 1509 kbps / 24 bit - АVO | Андрей Гаврилов | 2-я версия
Аудио #6: Украинский, AC3, 6 ch, 48 kHz, 640 kbps - Дубляж | BD CEE
Аудио #7: English, DTS / 5.1 / 48 kHz / 1509 kbps / 24 bit - Original
Субтитры: Русские (полные), Украинские (полные), English (Full, SDH)
Навигация по главам: есть (12 именованных глав)

MediaInfo / x264Log

x264Log

raw [info]: 1920x1080p 1:1 @ 24000/1001 fps (cfr)x264 [info]: using SAR=1/1x264 [info]: using cpu capabilities: MMX2 SSE2Fast SSSE3 SSE4.2 AVX XOP FMA4 FMA3 LZCNT BMI1x264 [info]: profile High, level 4.1x264 [info]: frame I:1166 Avg QP:12.10 size:295503 PSNR Mean Y:52.67 U:55.53 V:55.58 Avg:53.41 Global:52.23x264 [info]: frame P:46551 Avg QP:13.77 size: 85280 PSNR Mean Y:49.93 U:52.27 V:52.34 Avg:50.57 Global:49.52x264 [info]: frame B:97510 Avg QP:16.04 size: 28263 PSNR Mean Y:48.98 U:51.46 V:51.64 Avg:49.65 Global:48.43x264 [info]: consecutive B-frames: 4.1% 4.8% 62.4% 10.3% 5.4% 7.3% 0.7% 1.6% 2.9% 0.0% 0.0% 0.1% 0.2%x264 [info]: mb I I16..4: 18.0% 67.6% 14.4%x264 [info]: mb P I16..4: 6.8% 16.7% 3.6% P16..4: 31.8% 17.2% 7.2% 1.3% 0.1% skip:15.1%x264 [info]: mb B I16..4: 3.0% 3.3% 0.7% B16..8: 32.5% 11.9% 2.0% direct: 5.5% skip:41.0% L0:36.9% L1:49.8% BI:13.3%x264 [info]: 8x8 transform intra:56.9% inter:43.5%x264 [info]: coded y,uvDC,uvAC intra: 84.3% 91.9% 81.2% inter: 15.9% 21.2% 5.5%x264 [info]: i16 v,h,dc,p: 12% 9% 51% 29%x264 [info]: i8 v,h,dc,ddl,ddr,vr,hd,vl,hu: 16% 13% 26% 6% 7% 8% 7% 8% 9%x264 [info]: i4 v,h,dc,ddl,ddr,vr,hd,vl,hu: 21% 12% 39% 4% 6% 6% 5% 4% 4%x264 [info]: i8c dc,h,v,p: 54% 20% 14% 11%x264 [info]: Weighted P-Frames: Y:3.6% UV:3.1%x264 [info]: ref P L0: 69.2% 7.2% 15.6% 5.1% 2.8% 0.1%x264 [info]: ref B L0: 84.0% 13.3% 2.7%x264 [info]: ref B L1: 84.8% 15.2%x264 [info]: SSIM Mean Y:0.9917911 (20.857db)x264 [info]: PSNR Mean Y:49.316 U:51.755 V:51.897 Avg:49.975 Global:48.774 kb/s:9338.14encoded 145227 frames, 4.30 fps, 9338.14 kb/s
GeneralUnique ID : 225368690442418779747547392624418717730 (0xA98C6E526A01A3CD9B3C9400E6D18022)Complete name : Tangled.2010.Rus.BDRip.1080p.dfcbit.mkvFormat : MatroskaFormat version : Version 2File size : 12.8 GiBDuration : 1h 40mnOverall bit rate : 18.2 MbpsEncoded date : UTC 2014-03-07 15:32:12Writing application : mkvmerge v4.0.0 ('The Stars were mine') built on Jun 6 2010 16:18:42Writing library : libebml v1.0.0 + libmatroska v1.0.0
VideoID : 1Format : AVCFormat/Info : Advanced Video CodecFormat profile : High@L4.1Format settings, CABAC : YesFormat settings, ReFrames : 4 framesCodec ID : V_MPEG4/ISO/AVCDuration : 1h 40mnBit rate : 9 338 KbpsWidth : 1 920 pixelsHeight : 1 080 pixelsDisplay aspect ratio : 16:9Frame rate mode : ConstantFrame rate : 23.976 fpsColor space : YUVChroma subsampling : 4:2:0Bit depth : 8 bitsScan type : ProgressiveBits/(Pixel*Frame) : 0.188Stream size : 6.58 GiB (49%)Title : NTSC, 1920x1080 (1.778:1), BDRip 1080p - tRuAVC & Multfilmy [DFCbit]Writing library : x264 core 142 r2389kMod 956c8d8Encoding settings : cabac=1 / ref=4 / deblock=1:-2:-1 / analyse=0x3:0x133 / me=umh / subme=11 / psy=1 / fade_compensate=0.00 / psy_rd=0.63:0.00 / mixed_ref=1 / me_range=32 / chroma_me=1 / trellis=2 / 8x8dct=1 / cqm=0 / deadzone=21,11 / fast_pskip=0 / chroma_qp_offset=-2 / threads=12 / lookahead_threads=3 / sliced_threads=0 / nr=0 / decimate=1 / interlaced=0 / bluray_compat=0 / constrained_intra=0 / fgo=0 / bframes=12 / b_pyramid=2 / b_adapt=2 / b_bias=0 / direct=1 / weightb=1 / open_gop=0 / weightp=2 / keyint=250 / keyint_min=23 / scenecut=40 / intra_refresh=0 / rc_lookahead=70 / rc=crf / mbtree=0 / crf=17.6490 / qcomp=0.81 / qpmin=0 / qpmax=69 / qpstep=4 / vbv_maxrate=50000 / vbv_bufsize=62500 / crf_max=0.0 / nal_hrd=none / filler=0 / ip_ratio=1.40 / pb_ratio=1.30 / aq=3:0.90Language : RussianDefault : YesForced : NoColor primaries : BT.709Transfer characteristics : BT.709Matrix coefficients : BT.709
Audio #1ID : 2Format : AC-3Format/Info : Audio Coding 3Mode extension : CM (complete main)Format settings, Endianness : BigCodec ID : A_AC3Duration : 1h 40mnBit rate mode : ConstantBit rate : 640 KbpsChannel(s) : 6 channelsChannel positions : Front: L C R, Side: L R, LFESampling rate : 48.0 KHzBit depth : 16 bitsCompression mode : LossyStream size : 462 MiB (4%)Title : AC3, 6 ch, 48 kHz, 640 kbps - Дубляж | BD CEELanguage : RussianDefault : YesForced : No
Audio #2ID : 3Format : DTSFormat/Info : Digital Theater SystemsMode : 16Format settings, Endianness : BigCodec ID : A_DTSDuration : 1h 40mnBit rate mode : ConstantBit rate : 1 509 KbpsChannel(s) : 6 channelsChannel positions : Front: L C R, Side: L R, LFESampling rate : 48.0 KHzBit depth : 24 bitsCompression mode : LossyStream size : 1.06 GiB (8%)Title : DTS / 5.1 / 48 kHz / 1509 kbps / 24 bit - DVO | "Кубик в Кубе"Language : RussianDefault : NoForced : No
Audio #3ID : 4Format : DTSFormat/Info : Digital Theater SystemsMode : 16Format settings, Endianness : BigCodec ID : A_DTSDuration : 1h 40mnBit rate mode : ConstantBit rate : 1 509 KbpsChannel(s) : 6 channelsChannel positions : Front: L C R, Side: L R, LFESampling rate : 48.0 KHzBit depth : 24 bitsCompression mode : LossyStream size : 1.06 GiB (8%)Title : DTS / 5.1 / 48 kHz / 1509 kbps / 24 bit - AVO | Юрий СербинLanguage : RussianDefault : NoForced : No
Audio #4ID : 5Format : DTSFormat/Info : Digital Theater SystemsMode : 16Format settings, Endianness : BigCodec ID : A_DTSDuration : 1h 40mnBit rate mode : ConstantBit rate : 1 509 KbpsChannel(s) : 6 channelsChannel positions : Front: L C R, Side: L R, LFESampling rate : 48.0 KHzBit depth : 24 bitsCompression mode : LossyStream size : 1.06 GiB (8%)Title : DTS / 5.1 / 48 kHz / 1509 kbps / 24 bit - АVO | Андрей Гаврилов | 1-я версияLanguage : RussianDefault : NoForced : No
Audio #5ID : 6Format : DTSFormat/Info : Digital Theater SystemsMode : 16Format settings, Endianness : BigCodec ID : A_DTSDuration : 1h 40mnBit rate mode : ConstantBit rate : 1 509 KbpsChannel(s) : 6 channelsChannel positions : Front: L C R, Side: L R, LFESampling rate : 48.0 KHzBit depth : 24 bitsCompression mode : LossyStream size : 1.06 GiB (8%)Title : DTS / 5.1 / 48 kHz / 1509 kbps / 24 bit - АVO | Андрей Гаврилов | 2-я версияLanguage : RussianDefault : NoForced : No
Audio #6ID : 7Format : AC-3Format/Info : Audio Coding 3Mode extension : CM (complete main)Format settings, Endianness : BigCodec ID : A_AC3Duration : 1h 40mnBit rate mode : ConstantBit rate : 640 KbpsChannel(s) : 6 channelsChannel positions : Front: L C R, Side: L R, LFESampling rate : 48.0 KHzBit depth : 16 bitsCompression mode : LossyStream size : 462 MiB (4%)Title : AC3, 6 ch, 48 kHz, 640 kbps - Дубляж | BD CEELanguage : UkrainianDefault : NoForced : No
Audio #7ID : 8Format : DTSFormat/Info : Digital Theater SystemsMode : 16Format settings, Endianness : BigCodec ID : A_DTSDuration : 1h 40mnBit rate mode : ConstantBit rate : 1 509 KbpsChannel(s) : 6 channelsChannel positions : Front: L C R, Side: L R, LFESampling rate : 48.0 KHzBit depth : 24 bitsCompression mode : LossyStream size : 1.06 GiB (8%)Title : DTS / 5.1 / 48 kHz / 1509 kbps / 24 bit - OriginalLanguage : EnglishDefault : NoForced : No
Text #1ID : 9Format : UTF-8Codec ID : S_TEXT/UTF8Codec ID/Info : UTF-8 Plain TextTitle : SRT, FullLanguage : RussianDefault : NoForced : No
Text #2ID : 10Format : UTF-8Codec ID : S_TEXT/UTF8Codec ID/Info : UTF-8 Plain TextTitle : SRT, FullLanguage : UkrainianDefault : NoForced : No
Text #3ID : 11Format : UTF-8Codec ID : S_TEXT/UTF8Codec ID/Info : UTF-8 Plain TextTitle : SRT, FullLanguage : EnglishDefault : NoForced : No
Text #4ID : 12Format : UTF-8Codec ID : S_TEXT/UTF8Codec ID/Info : UTF-8 Plain TextTitle : SRT, (SDH)Language : EnglishDefault : NoForced : No
Menu00:00:00.000 : en:1. The Lost Princess00:08:21.084 : en:2. Mother Knows Best00:15:43.401 : en:3. Meet Flynn Rider00:24:41.355 : en:4. Making a Deal00:34:42.288 : en:5. The Snuggly Duckling00:42:31.007 : en:6. The Escape00:50:26.065 : en:7. In the Woods00:59:22.058 : en:8. The Best Day of Your Life01:10:35.773 : en:9. Betrayed01:19:23.550 : en:10. The Rescue01:25:22.159 : en:11. A New Dream01:31:21.017 : en:12. End Credits

Скриншоты

Локализация

--BDRip 1080p


Source Blu-Ray

Релиз от групп | and | -Данный релиз не будет воспроизводиться на бытовых плеерах не поддерживающих MKV и H.264Обсуждение релизов в AVC формате || Свежие AVC рипы


Показать сообщения:    

Текущее время: 14-Дек 22:56

Часовой пояс: UTC ± 0


Вы не можете начинать темы
Вы не можете отвечать на сообщения
Вы не можете редактировать свои сообщения
Вы не можете удалять свои сообщения
Вы не можете голосовать в опросах
Вы не можете прикреплять файлы к сообщениям
Вы не можете скачивать файлы

!ВНИМАНИЕ!
Сайт не предоставляет электронные версии произведений, а занимается лишь коллекционированием и каталогизацией ссылок, присылаемых и публикуемых на форуме нашими читателями. Если вы являетесь правообладателем какого-либо представленного материала и не желаете, чтобы ссылка на него находилась в нашем каталоге, свяжитесь с нами, и мы незамедлительно удалим ее. Файлы для обмена на трекере предоставлены пользователями сайта, и администрация не несет ответственности за их содержание. Просьба не заливать файлы, защищенные авторскими правами, а также файлы нелегального содержания!