Рапунцель: Запутанная история / Tangled (Натан Грено, Байрон Ховард / Nathan Greno, Byron Howard) [2010 г., мультфильм, мюзикл, приключения, семейный, BDRip-AVC] (Локализованный видеоряд) Dub + Ukr + Eng + Subs (Rus, Ukr, Eng) :: Ивановский Торрент трекер
Важное объявление!
У Нас Все раздачи мультитрекерные, при нуле пиров в релизах, можете смело вставать на закачку!
Статистика раздачи
Размер:     |    Зарегистрирован:     |    Скачан:     |   
Нет
 
     
 
 
Автор Сообщение

HUNTER

Стаж:
4 года 11 месяцев
Сообщений:
66098

Репутация: 101

[+] [-]
Вне форума [Профиль] [ЛС]

| Все релизы мультфильма || BDRip-AVC, 2.91 GB |- P R E S E N T SРапунцель: Запутанная история / Tangled-
Страна: США
Жанр: мультфильм, мюзикл, приключения, семейный
Продолжительность: 01:40:57
Год выпуска: 2010
Перевод: Профессиональный (полное дублирование)
Субтитры: есть-Режиссёр: Натан Грено, Байрон Ховард / Nathan Greno, Byron Howard
Роли озвучивали: Мэнди Мур, Закари Левай, Донна Мерфи, Рон Перлман, М. К. Гейни, Джеффри Тэмбор, Брэд Гэрред, Пол Ф. Томпкинс, Ричард Кил, Делани Роуз Стейн, Натан Грено, Байрон Ховард, Тим Мертенс, Майкл Белл...
Роли дублировали: Виктория Дайнеко, Григорий Антипенко, Андрей Бирин, Мария Кац, Арман Хачатрян, Денис Некрасов, Антон Эльдаров, Владимир Майсурадзе, Антон Батырев, Александра Ахметзянова и др.- | | -Описание: Обаятельный разбойник Флинн путешествует по жизни с легкостью, лишь потому, что он красив, болтлив и удачлив. И, казалось, фортуна всегда на его стороне, пока однажды он не выбирает высокую башню в густой чаще леса в качестве «спокойного» убежища. Флинн оказывается связанным по рукам и ногам юной красавицей по имени Рапунцель. Если вы думаете, что самое интересное в ней - это 21 метр волшебных золотистых волос, то вы заблуждаетесь! Запертая в башне и отчаянно ищущая приключений, Рапунцель решает использовать Флинна в качестве билета в большой мир. Сначала комичное похищение, затем невинный шантаж - и вот наши герои на воле. Вместе с главными героями в авантюрное путешествие отправятся бравый конь-ищейка Максимус, ручной хамелеон и шайка сумасбродных разбойников...-Доп. информация: BDRip-AVC сделан с Blu-Ray диска Tangled (2010) Blu-ray CEE 1080p AVC DD5.1-HDClub (Локализованный видеоряд).
Отдельное спасибо xfiles за подготовку русских и украинских субтитров.
-Сэмпл/Sample (21 MB, 1 минута)-Качество: BDRip-AVC
Формат: MKV
Видео: 1152x648 (1.778:1), 23,976 fps, ~2778 kbps avg, 0.155 bit/pixel
Аудио #1: Русский, AC3, 6 ch, 48 kHz, 448 kbps - Дубляж | BD CEE
Аудио #2: Украинский, AC3, 6 ch, 48 kHz, 448 kbps - Дубляж | BD CEE
Аудио #3: English, AC3, 6 ch, 48 kHz, 448 kbps - Original
Субтитры: Русские (полные), Украинские (полные), English (Full, SDH)
Навигация по главам: есть (12 именованных глав)

MediaInfo / x264Log

x264Log

raw [info]: 1152x648p 1:1 @ 24000/1001 fps (cfr)x264 [info]: using SAR=1/1x264 [info]: using cpu capabilities: MMX2 SSE2Fast SSSE3 SSE4.2 AVX XOP FMA4 FMA3 LZCNT BMI1x264 [info]: profile High, level 4.1x264 [info]: frame I:1189 Avg QP:12.35 size:133348 PSNR Mean Y:50.29 U:52.09 V:52.11 Avg:50.80 Global:49.97x264 [info]: frame P:37946 Avg QP:15.14 size: 28593 PSNR Mean Y:48.19 U:50.00 V:50.08 Avg:48.70 Global:47.75x264 [info]: frame B:106092 Avg QP:18.13 size: 8105 PSNR Mean Y:47.74 U:49.75 V:49.94 Avg:48.31 Global:47.13x264 [info]: consecutive B-frames: 3.2% 3.4% 27.5% 21.5% 12.6% 26.0% 2.1% 0.9% 0.6% 0.3% 0.5% 0.2% 0.5% 0.4% 0.4%x264 [info]: mb I I16..4: 3.3% 68.7% 28.0%x264 [info]: mb P I16..4: 0.8% 11.1% 2.3% P16..4: 23.8% 25.3% 12.5% 2.9% 0.4% skip:20.8%x264 [info]: mb B I16..4: 0.2% 1.6% 0.3% B16..8: 25.6% 16.1% 3.0% direct: 3.4% skip:49.9% L0:41.4% L1:44.5% BI:14.1%x264 [info]: 8x8 transform intra:76.9% inter:49.5%x264 [info]: coded y,uvDC,uvAC intra: 84.7% 90.2% 76.6% inter: 12.9% 13.0% 5.1%x264 [info]: i16 v,h,dc,p: 23% 10% 6% 60%x264 [info]: i8 v,h,dc,ddl,ddr,vr,hd,vl,hu: 14% 11% 10% 8% 10% 11% 11% 12% 14%x264 [info]: i4 v,h,dc,ddl,ddr,vr,hd,vl,hu: 14% 8% 7% 8% 16% 13% 13% 10% 11%x264 [info]: i8c dc,h,v,p: 41% 23% 18% 18%x264 [info]: Weighted P-Frames: Y:5.2% UV:4.3%x264 [info]: ref P L0: 56.4% 9.1% 13.1% 6.1% 4.3% 3.3% 2.7% 1.6% 1.2% 1.0% 0.8% 0.3% 0.0%x264 [info]: ref B L0: 71.1% 14.7% 6.2% 2.8% 1.8% 1.3% 1.0% 0.6% 0.4% 0.2%x264 [info]: ref B L1: 91.3% 8.7%x264 [info]: SSIM Mean Y:0.9901589 (20.070db)x264 [info]: PSNR Mean Y:47.874 U:49.835 V:49.995 Avg:48.430 Global:47.303 kb/s:2778.04encoded 145227 frames, 9.68 fps, 2778.04 kb/s
GeneralUnique ID : 182027649780007701750325347781067403306 (0x88F140094A96C396BAA12198D113F02A)Complete name : Tangled.2010.Rus.BDRip-AVC.648p.dfcbit.mkvFormat : MatroskaFormat version : Version 2File size : 2.91 GiBDuration : 1h 40mnOverall bit rate : 4 125 KbpsEncoded date : UTC 2014-03-07 17:43:08Writing application : mkvmerge v4.0.0 ('The Stars were mine') built on Jun 6 2010 16:18:42Writing library : libebml v1.0.0 + libmatroska v1.0.0
VideoID : 1Format : AVCFormat/Info : Advanced Video CodecFormat profile : High@L4.1Format settings, CABAC : YesFormat settings, ReFrames : 11 framesCodec ID : V_MPEG4/ISO/AVCDuration : 1h 40mnBit rate : 2 778 KbpsWidth : 1 152 pixelsHeight : 648 pixelsDisplay aspect ratio : 16:9Frame rate mode : ConstantFrame rate : 23.976 fpsColor space : YUVChroma subsampling : 4:2:0Bit depth : 8 bitsScan type : ProgressiveBits/(Pixel*Frame) : 0.155Stream size : 1.96 GiB (65%)Title : NTSC, 1152x648 (1.778:1), BDRip-AVC 648p - tRuAVC & Multfilmy [DFCbit]Writing library : x264 core 142 r2389kMod 956c8d8Encoding settings : cabac=1 / ref=11 / deblock=1:-2:-1 / analyse=0x3:0x133 / me=umh / subme=11 / psy=1 / fade_compensate=0.00 / psy_rd=0.63:0.00 / mixed_ref=1 / me_range=32 / chroma_me=1 / trellis=2 / 8x8dct=1 / cqm=0 / deadzone=21,11 / fast_pskip=0 / chroma_qp_offset=-2 / threads=12 / lookahead_threads=3 / sliced_threads=0 / nr=0 / decimate=1 / interlaced=0 / bluray_compat=0 / constrained_intra=0 / fgo=0 / bframes=14 / b_pyramid=2 / b_adapt=2 / b_bias=0 / direct=1 / weightb=1 / open_gop=0 / weightp=2 / keyint=250 / keyint_min=23 / scenecut=40 / intra_refresh=0 / rc_lookahead=70 / rc=2pass / mbtree=0 / bitrate=2778 / ratetol=1.0 / qcomp=0.81 / qpmin=0 / qpmax=69 / qpstep=4 / cplxblur=20.0 / qblur=0.5 / vbv_maxrate=50000 / vbv_bufsize=62500 / nal_hrd=none / filler=0 / ip_ratio=1.40 / pb_ratio=1.30 / aq=3:0.90Language : RussianDefault : YesForced : NoColor primaries : BT.709Transfer characteristics : BT.709Matrix coefficients : BT.709
Audio #1ID : 2Format : AC-3Format/Info : Audio Coding 3Mode extension : CM (complete main)Format settings, Endianness : BigCodec ID : A_AC3Duration : 1h 40mnBit rate mode : ConstantBit rate : 448 KbpsChannel(s) : 6 channelsChannel positions : Front: L C R, Side: L R, LFESampling rate : 48.0 KHzBit depth : 16 bitsCompression mode : LossyStream size : 323 MiB (11%)Title : AC3, 6 ch, 48 kHz, 448 kbps - Дубляж | BD CEELanguage : RussianDefault : YesForced : No
Audio #2ID : 3Format : AC-3Format/Info : Audio Coding 3Mode extension : CM (complete main)Format settings, Endianness : BigCodec ID : A_AC3Duration : 1h 40mnBit rate mode : ConstantBit rate : 448 KbpsChannel(s) : 6 channelsChannel positions : Front: L C R, Side: L R, LFESampling rate : 48.0 KHzBit depth : 16 bitsCompression mode : LossyStream size : 323 MiB (11%)Title : AC3, 6 ch, 48 kHz, 448 kbps - Дубляж | BD CEELanguage : UkrainianDefault : NoForced : No
Audio #3ID : 4Format : AC-3Format/Info : Audio Coding 3Mode extension : CM (complete main)Format settings, Endianness : BigCodec ID : A_AC3Duration : 1h 40mnBit rate mode : ConstantBit rate : 448 KbpsChannel(s) : 6 channelsChannel positions : Front: L C R, Side: L R, LFESampling rate : 48.0 KHzBit depth : 16 bitsCompression mode : LossyStream size : 323 MiB (11%)Title : AC3, 6 ch, 48 kHz, 448 kbps - OriginalLanguage : EnglishDefault : NoForced : No
Text #1ID : 5Format : UTF-8Codec ID : S_TEXT/UTF8Codec ID/Info : UTF-8 Plain TextTitle : SRT, FullLanguage : RussianDefault : NoForced : No
Text #2ID : 6Format : UTF-8Codec ID : S_TEXT/UTF8Codec ID/Info : UTF-8 Plain TextTitle : SRT, FullLanguage : UkrainianDefault : NoForced : No
Text #3ID : 7Format : UTF-8Codec ID : S_TEXT/UTF8Codec ID/Info : UTF-8 Plain TextTitle : SRT, FullLanguage : EnglishDefault : NoForced : No
Text #4ID : 8Format : UTF-8Codec ID : S_TEXT/UTF8Codec ID/Info : UTF-8 Plain TextTitle : SRT, (SDH)Language : EnglishDefault : NoForced : No
Menu00:00:00.000 : en:1. The Lost Princess00:08:21.084 : en:2. Mother Knows Best00:15:43.401 : en:3. Meet Flynn Rider00:24:41.355 : en:4. Making a Deal00:34:42.288 : en:5. The Snuggly Duckling00:42:31.007 : en:6. The Escape00:50:26.065 : en:7. In the Woods00:59:22.058 : en:8. The Best Day of Your Life01:10:35.773 : en:9. Betrayed01:19:23.550 : en:10. The Rescue01:25:22.159 : en:11. A New Dream01:31:21.017 : en:12. End Credits

Скриншоты

Локализация

--BDRip-AVC


Source Blu-Ray

Релиз от групп | and | -Данный релиз не будет воспроизводиться на бытовых плеерах не поддерживающих MKV и H.264Обсуждение релизов в AVC формате || Свежие AVC рипы

_________________
Показать сообщения:    

Текущее время: Сегодня 05:37

Часовой пояс: GMT



Вы не можете начинать темы
Вы не можете отвечать на сообщения
Вы не можете редактировать свои сообщения
Вы не можете удалять свои сообщения
Вы не можете голосовать в опросах
Вы не можете прикреплять файлы к сообщениям
Вы не можете скачивать файлы