Ивановский Торрент трекер
Яндекс.Погода
 

[Цитировать]
HUNTER

-Рапунцель: Запутанная история / Tangled (2010) BDRip- Год: 2010
Страна: США
Жанр: Мультфильм, мюзикл, фэнтези, мелодрама, комедия, семейный
Продолжительность: 01:40:57
Перевод: Профессиональный (полное дублирование) с Blu-ray CEE + Оригинал
Субтитры: Русские (Blu-ray CEE), Украинские (Blu-ray CEE), Английские-Режиссёр: Натан Грено, Байрон Ховард-В ролях: Мэнди Мур, Захари Левай, Донна Мерфи, Рон Перлман, М. К. Гейни, Джефри Тэмбор, Брэд Гэррет, Пол Ф. Томпкинс, Ричард Кил, Делани Роуз Стейн-Описание: Обаятельный разбойник Флинн путешествует по жизни с легкостью, лишь потому, что он красив, болтлив и удачлив. И казалось, фортуна всегда на его стороне, пока однажды он не выбирает высокую башню в густой чаще леса в качестве «спокойного» убежища. Флинн оказывается связанным по рукам и ногам юной красавицей по имени Рапунцель.
Если вы думаете, что самое интересное в ней — это 21 метр волшебных золотистых волос, то вы заблуждаетесь! Запертая в башне и отчаянно ищущая приключений, Рапунцель решает использовать Флинна в качестве билета в большой мир. Сначала комичное похищение, затем невинный шантаж — и вот наши герои на воле. Вместе с главными героями в авантюрное путешествие отправятся бравый конь-ищейка Максимус, ручной хамелеон и шайка сумасбродных разбойников.
- -Качество видео: BDRip 720p
Формат: MKV
Видео кодек: x264
Аудио кодек: AC3, DTS
Видео: 1280x720 at 23.976 fps, x264@L4.1 ~3722 kbps avg
Аудио №1: Russian: 48 kHz, AC3, 3/2 (L,C,R,l,r) + LFE ch, ~640 kbps avg |Дубляж, Blu-ray CEE|
Аудио №2: Ukrainian: 48 kHz, AC3, 3/2 (L,C,R,l,r) + LFE ch, ~640 kbps avg |Дубляж, Blu-ray CEE|
Аудио №3: English: 48 kHz, DTS, 3/2 (L,C,R,l,r) + LFE ch, ~1510 kbps avg |Оригинал|-Рип от AndrewPlacid-Релиз от -

Скриншоты

-

Отчёт MediaInfo:

Общее
Уникальный идентификатор : 241224376329547993928229456210862247650 (0xB57A1FFDF695944AB2030DDBC4138EE2)
Полное имя : Tangled.Rus.2010.720p.BluRay.Rus.Ukr.Eng.HDCLUB.mkv
Формат : Matroska
Размер файла : 4,68 Гбайт
Продолжительность : 1 ч. 40 м.
Общий поток : 6644 Кбит/сек
Название фильма : Tangled (Rus 2010) - Release for HDCLUB
Дата кодирования : UTC 2011-03-18 20:32:40
Программа кодирования : mkvmerge v3.4.0 ('Rapunzel') built on May 15 2010 09:38:20
Библиотека кодирования : libebml v0.8.0 + libmatroska v0.9.0
Видео
Идентификатор : 1
Формат : AVC
Формат/Информация : Advanced Video Codec
Профиль формата : High@L4.1
Параметр CABAC формата : Да
Параметр ReFrames формата : 8 кадры
Идентификатор кодека : V_MPEG4/ISO/AVC
Продолжительность : 1 ч. 40 м.
Битрейт : 3722 Кбит/сек
Ширина : 1280 пикс.
Высота : 720 пикс.
Соотношение сторон : 16:9
Частота кадров : 23,976 кадр/сек
Цветовое пространство : YUV
Подвыборка цветности : 4:2:0
Битовая глубина : 8 бит
Тип развёртки : Прогрессивная
Бит/(Пиксели*Кадры) : 0.168
Размер потока : 2,62 Гбайт (56%)
Заголовок : Release for HDCLUB
Библиотека кодирования : x264 core 112 r1834kMod a51816a
Настройки программы : cabac=1 / ref=8 / deblock=1:-2:-2 / analyse=0x3:0x113 / me=umh / subme=10 / psy=1 / psy_rd=1.00:0.00 / mixed_ref=1 / me_range=32 / chroma_me=1 / trellis=2 / 8x8dct=1 / cqm=0 / deadzone=21,11 / fast_pskip=0 / chroma_qp_offset=-2 / threads=6 / sliced_threads=0 / nr=0 / decimate=0 / interlaced=0 / constrained_intra=0 / bframes=8 / b_pyramid=2 / b_adapt=2 / b_bias=0 / direct=3 / weightb=1 / open_gop=0 / weightp=2 / keyint=240 / keyint_min=24 / scenecut=40 / intra_refresh=0 / rc=crf / mbtree=0 / crf=16.5000 / qcomp=0.60 / qpmin=0 / qpmax=51 / qpstep=4 / ip_ratio=1.40 / pb_ratio=1.30 / aq=1:0.90
Язык : English
Аудио #1
Идентификатор : 2
Формат : AC-3
Формат/Информация : Audio Coding 3
Расширение режима : CM (complete main)
Идентификатор кодека : A_AC3
Продолжительность : 1 ч. 40 м.
Вид битрейта : Постоянный
Битрейт : 640 Кбит/сек
Канал(ы) : 6 канала(ов)
Расположение каналов : Front: L C R, Side: L R, LFE
Частота : 48,0 КГц
Битовая глубина : 16 бит
Метод сжатия : С потерями
Размер потока : 462 Мбайт (10%)
Заголовок : AC3 5.1ch 640 kbps - Дубляж, Blu-Ray CEE
Язык : Russian
Аудио #2
Идентификатор : 3
Формат : AC-3
Формат/Информация : Audio Coding 3
Расширение режима : CM (complete main)
Идентификатор кодека : A_AC3
Продолжительность : 1 ч. 40 м.
Вид битрейта : Постоянный
Битрейт : 640 Кбит/сек
Канал(ы) : 6 канала(ов)
Расположение каналов : Front: L C R, Side: L R, LFE
Частота : 48,0 КГц
Битовая глубина : 16 бит
Метод сжатия : С потерями
Размер потока : 462 Мбайт (10%)
Заголовок : AC3 5.1ch 640 kbps - Дубляж, Blu-Ray CEE
Язык : Ukrainian
Аудио #3
Идентификатор : 4
Формат : DTS
Формат/Информация : Digital Theater Systems
Идентификатор кодека : A_DTS
Продолжительность : 1 ч. 40 м.
Вид битрейта : Постоянный
Битрейт : 1510 Кбит/сек
Канал(ы) : 6 канала(ов)
Расположение каналов : Front: L C R, Side: L R, LFE
Частота : 48,0 КГц
Битовая глубина : 24 бит
Метод сжатия : С потерями
Размер потока : 1,06 Гбайт (23%)
Заголовок : DTS 5.1ch 1510 kbps
Язык : English
Текст #1
Идентификатор : 5
Формат : UTF-8
Идентификатор кодека : S_TEXT/UTF8
Идентификатор кодека/Информация : UTF-8 Plain Text
Язык : Russian
Текст #2
Идентификатор : 6
Формат : UTF-8
Идентификатор кодека : S_TEXT/UTF8
Идентификатор кодека/Информация : UTF-8 Plain Text
Язык : Ukrainian
Текст #3
Идентификатор : 7
Формат : UTF-8
Идентификатор кодека : S_TEXT/UTF8
Идентификатор кодека/Информация : UTF-8 Plain Text
Язык : English
Меню
00:00:00.000 : en:00:00:00.000
00:08:21.084 : en:00:08:21.084
00:15:43.401 : en:00:15:43.401
00:24:41.355 : en:00:24:41.355
00:34:42.288 : en:00:34:42.288
00:42:31.007 : en:00:42:31.007
00:50:26.065 : en:00:50:26.065
00:59:22.058 : en:00:59:22.058
01:10:35.773 : en:01:10:35.773
01:19:23.550 : en:01:19:23.550
01:25:22.159 : en:01:25:22.159
01:31:21.017 : en:01:31:21.017


Показать сообщения:    

Текущее время: 11-Дек 13:30

Часовой пояс: UTC ± 0


Вы не можете начинать темы
Вы не можете отвечать на сообщения
Вы не можете редактировать свои сообщения
Вы не можете удалять свои сообщения
Вы не можете голосовать в опросах
Вы не можете прикреплять файлы к сообщениям
Вы не можете скачивать файлы

!ВНИМАНИЕ!
Сайт не предоставляет электронные версии произведений, а занимается лишь коллекционированием и каталогизацией ссылок, присылаемых и публикуемых на форуме нашими читателями. Если вы являетесь правообладателем какого-либо представленного материала и не желаете, чтобы ссылка на него находилась в нашем каталоге, свяжитесь с нами, и мы незамедлительно удалим ее. Файлы для обмена на трекере предоставлены пользователями сайта, и администрация не несет ответственности за их содержание. Просьба не заливать файлы, защищенные авторскими правами, а также файлы нелегального содержания!