Важное объявление!
У Нас Все раздачи мультитрекерные, при нуле пиров в релизах, можете смело вставать на закачку!
Статистика раздачи
Размер:     |    Зарегистрирован:     |    Скачан:     |   
Нет
 
     
 
 
Автор Сообщение

HUNTER

Стаж:
5 лет
Сообщений:
67898

Репутация: 101

[+] [-]
Вне форума [Профиль] [ЛС]

Рамаяна: Эпос / Ramayana: The Epic
Страна: Индия
Жанр: Эпос
Продолжительность: 01:41:41
Год выпуска: 2010
Перевод: Одноголосый закадровый
Русские субтитры: нет
Режиссёр: Четан Десай / Chetan Desai
Описание: Рамаяна («путешествие Рамы») — древнеиндийский эпос, автором которого в традиции индуизма принято считать легендарного мудреца Валмики. Является одним из важнейших священных текстов индуизма, неотемлемым элементом этой древнейшей культуры.
3D анимация студии Maya Digital Media предлагает зрителю несколько адаптированную для западного восприятия интерпретацию индуистского классического сюжета: герой Рама отправляется на поиски своей жены Ситы, коварно похищеной могущественным демоном-ракшасом Раваной. Релиз может быть рекомендован к просмотру широкой аудитории. Неискушенный зритель увидит трогательную историю любви и верности, героические подвиги, песни и пляски, кипящий накал страстей - зависть, хитрость, подлость, предательство. Дети будут довольны красочными пейзажами, батальными сценами, волшебством превращений. Любителям индийской культуры будет интерересно сравнить это произведение с оригиналом, освежить в памяти труднопроизносимые имена персонажей, улыбнуться наивности происходящего, удивиться финалу.
Дополнительно: За предоставленные звуковые дорожки большое спасибо товарищу bob2, да пребудет с ним Шива навеки.
Семпл: http://multi-up.com/934877
Качество: BDRip 720p
Формат: MKV
Видео: V_MPEG4/ISO/AVC, 1280x552, 24.000 fps, 4600 kbps
Аудио: A_AC3, 48.0 kHz, 2.0, 192 kbps
Аудио 2: A_AC3, 48.0 kHz, 5.1, 448 kbps, hindi (original)
Субтитры: English

Подробные технические данные

ОбщееУникальный идентификатор : 244936479914036898669945507850382489369 (0xB8450CD4442366B5BA206DF173F83719)Полное имя : /bla-bla-bla/Рамаяна Эпос. Ramayana The Epic.mkvФормат : MatroskaВерсия формата : Version 4 / Version 2Размер файла : 3,72 ГбайтПродолжительность : 1 ч. 41 м.Общий поток : 5242 Кбит/секДата кодирования : UTC 2010-02-22 21:41:31Программа кодирования : mkvmerge v5.9.0 ('On The Loose') built on Dec 9 2012 15:37:01Библиотека кодирования : libebml v1.3.0 + libmatroska v1.4.0
ВидеоИдентификатор : 1Формат : AVCФормат/Информация : Advanced Video CodecПрофиль формата : High@L4.0Параметр CABAC формата : ДаПараметр ReFrames формата : 8 кадровИдентификатор кодека : V_MPEG4/ISO/AVCПродолжительность : 1 ч. 41 м.Битрейт : 4600 Кбит/секШирина : 1280 пикселейВысота : 552 пикселяСоотношение сторон : 2,35:1Режим частоты кадров : ПостоянныйЧастота кадров : 24,000 кадра/секЦветовое пространство : YUVСубдискретизация насыщенности : 4:2:0Битовая глубина : 8 битТип развёртки : ПрогрессивнаяБит/(Пиксели*Кадры) : 0.271Размер потока : 3,19 Гбайт (86%)Заголовок : Ramayana: The EpicБиблиотека кодирования : x264 core 119 r2106 07efeb4Настройки программы : cabac=1 / ref=8 / deblock=1:-1:-1 / analyse=0x3:0x133 / me=umh / subme=9 / psy=1 / psy_rd=1.00:0.10 / mixed_ref=1 / me_range=16 / chroma_me=1 / trellis=2 / 8x8dct=1 / cqm=0 / deadzone=21,11 / fast_pskip=1 / chroma_qp_offset=-3 / threads=12 / sliced_threads=0 / nr=0 / decimate=1 / interlaced=0 / bluray_compat=0 / constrained_intra=0 / bframes=3 / b_pyramid=2 / b_adapt=2 / b_bias=0 / direct=3 / weightb=1 / open_gop=0 / weightp=2 / keyint=250 / keyint_min=23 / scenecut=40 / intra_refresh=0 / rc_lookahead=60 / rc=2pass / mbtree=1 / bitrate=4600 / ratetol=1.0 / qcomp=0.60 / qpmin=0 / qpmax=69 / qpstep=4 / cplxblur=20.0 / qblur=0.5 / ip_ratio=1.40 / aq=1:1.00Default : ДаForced : Нет
Аудио #1Идентификатор : 2Формат : AC-3Формат/Информация : Audio Coding 3Расширение режима : CM (complete main)Параметр Endianness формата : BigИдентификатор кодека : A_AC3Продолжительность : 1 ч. 41 м.Вид битрейта : ПостоянныйБитрейт : 192 Кбит/секКаналы : 2 каналаРасположение каналов : Front: L RЧастота : 48,0 КГцБитовая глубина : 16 битМетод сжатия : С потерямиРазмер потока : 140 Мбайт (4%)Заголовок : VOЯзык : RussianDefault : ДаForced : Нет
Аудио #2Идентификатор : 3Формат : AC-3Формат/Информация : Audio Coding 3Расширение режима : CM (complete main)Параметр Endianness формата : BigИдентификатор кодека : A_AC3Продолжительность : 1 ч. 41 м.Вид битрейта : ПостоянныйБитрейт : 448 Кбит/секКаналы : 6 каналовРасположение каналов : Front: L C R, Side: L R, LFEЧастота : 48,0 КГцБитовая глубина : 16 битМетод сжатия : С потерямиРазмер потока : 326 Мбайт (9%)Заголовок : OriginalЯзык : HindiDefault : НетForced : Нет
ТекстИдентификатор : 4Формат : UTF-8Идентификатор кодека : S_TEXT/UTF8Идентификатор кодека/Информация : UTF-8 Plain TextЗаголовок : SubtitlesЯзык : EnglishDefault : НетForced : Нет

Скриншоты



_________________
Показать сообщения:    

Текущее время: Сегодня 12:44

Часовой пояс: GMT



Вы не можете начинать темы
Вы не можете отвечать на сообщения
Вы не можете редактировать свои сообщения
Вы не можете удалять свои сообщения
Вы не можете голосовать в опросах
Вы не можете прикреплять файлы к сообщениям
Вы не можете скачивать файлы