Важное объявление!
У Нас Все раздачи мультитрекерные, при нуле пиров в релизах, можете смело вставать на закачку!
 
Автор Сообщение

HUNTER

Стаж:
4 года 9 месяцев
Сообщений:
65033

Репутация: 101

[+] [-]
Вне форума [Профиль] [ЛС]

Разрушители мифов (легенд) / MythBusters
Год выпуска: 2012
Страна: США
Жанр: Научно-популярный
Продолжительность: серии по ~45 минут
Перевод: Студийный (одноголосый закадровый)
Русские субтитры: нет
Режиссер: Питер Риис / Peter Rees
Описание: «Разрушители легенд» — американская научно-популярная телепередача на канале Discovery Channel. Передачу ведут специалисты по спецэффектам Джейми Хайнеман и Адам Севидж, использующие свои навыки и опыт для экспериментальной проверки различных баек, слухов, городских легенд и других порождений популярной культуры. Съёмки передачи обычно проходят в области залива Сан-Франциско.
качество: DVB
формат: TS
Видео: MPEG2, 720х576 (4:3), 25 fps, MPEG-TS, ~2500 Kbps avg
Аудио: MPEG Audio, 48 Khz, 2ch, 192 Kbps
Семпл: http://multi-up.com/956392

Список выпусков/серий

195 - Mini Myth Medley
197 - Food Fables
203 - Motorcycle Water Ski
204 - Hypermiling and Crash Cushions

MediaInfo

GeneralID : 1 (0x1)Complete name : F:\MythBusters\197 - Food Fables.tsFormat : MPEG-TSFile size : 900 MiBDuration : 44mn 8sOverall bit rate mode : VariableOverall bit rate : 2 850 Kbps
VideoID : 320 (0x140)Menu ID : 1 (0x1)Format : MPEG VideoFormat version : Version 2Format profile : Main@MainFormat settings, BVOP : NoFormat settings, Matrix : CustomFormat settings, GOP : VariableCodec ID : 2Duration : 44mn 8sBit rate mode : VariableBit rate : 2 516 KbpsMaximum bit rate : 5 000 KbpsWidth : 720 pixelsHeight : 576 pixelsDisplay aspect ratio : 4:3Frame rate : 25.000 fpsStandard : PALColor space : YUVChroma subsampling : 4:2:0Bit depth : 8 bitsScan type : InterlacedScan order : Top Field FirstCompression mode : LossyBits/(Pixel*Frame) : 0.243Time code of first frame : 00:00:00:00Time code source : Group of pictures headerStream size : 794 MiB (88%)
AudioID : 400 (0x190)Menu ID : 1 (0x1)Format : MPEG AudioFormat version : Version 1Format profile : Layer 2Codec ID : 3Duration : 44mn 8sBit rate mode : ConstantBit rate : 192 KbpsChannel count : 2 channelsSampling rate : 48.0 KHzCompression mode : LossyDelay relative to video : -2msStream size : 60.6 MiB (7%)Language : German

Скриншоты


_________________
Показать сообщения:    

Текущее время: Сегодня 08:31

Часовой пояс: GMT



Вы не можете начинать темы
Вы не можете отвечать на сообщения
Вы не можете редактировать свои сообщения
Вы не можете удалять свои сообщения
Вы не можете голосовать в опросах
Вы не можете прикреплять файлы к сообщениям
Вы не можете скачивать файлы