Ивановский Торрент трекер
Яндекс.Погода
 

[Цитировать]
HUNTER

Разрушители легенд: Экономия топлива / Mythbusters: Hypermiling, Crash Cushions-Год выпуска: 2013
Страна: США, Австралия
Жанр: Научно-популярная телепередача
Продолжительность: 00:43:56
Перевод: Профессиональный многоголосый (Discovery)
Субтитры: нет-В ролях: Джейми Хайнеман, Адам Сэвидж, Тори Беллечи, Кэри Байрон, Грант Имахара
Режиссёр: Стив Кристьянсен, Лаурен Вильямс-Описание: В этом эпизоде Разрушители легенд проверяют, может ли сидящий в автомобиле между двумя толстяками человек выжить в аварии, и тестируют эффективность нескольких способов экономии топлива, связанных со стилем вождения.
-Качество: IPTVRip
Формат: mkv
Видео кодек: h.264 (AVC)
Аудио кодек: MP2
Видео: 768x432 (16:9) 25fps 1866kbps 0.225 bit/pixel
Аудио: MP2 48KHz 2ch ~192kbps-

MI

Общее
Полное имя : Разрушители легенд Экономия топлива (204).mkv
Формат : Matroska
Версия формата : Version 2
Размер файла : 660 Мбайт
Продолжительность : 43 м.
Общий поток : 2100 Кбит/сек
Программа кодирования : x264 r2245+729M 1a52e03
Библиотека кодирования : Haali Matroska Writer b0
Видео
Идентификатор : 1
Формат : AVC
Формат/Информация : Advanced Video Codec
Профиль формата : High@L3.0
Параметр CABAC формата : Да
Параметр ReFrames формата : 6 кадров
Идентификатор кодека : V_MPEG4/ISO/AVC
Продолжительность : 43 м.
Битрейт : 1866 Кбит/сек
Ширина : 768 пикселей
Высота : 432 пикселя
Соотношение сторон : 16:9
Режим частоты кадров : Постоянный
Частота кадров : 25,000 кадров/сек
Цветовое пространство : YUV
Субдискретизация насыщенности : 4:2:0
Битовая глубина : 8 бит
Тип развёртки : Прогрессивная
Бит/(Пиксели*Кадры) : 0.225
Размер потока : 586 Мбайт (89%)
Библиотека кодирования : x264 core 129 r2245+729M 1a52e03
Настройки программы : cabac=1 / ref=6 / deblock=1:-1:-1 / analyse=0x3:0x133 / me=umh / subme=11 / psy=1 / fade_compensate=0.00 / psy_rd=1.00:0.15 / mixed_ref=1 / me_range=32 / chroma_me=1 / trellis=2 / 8x8dct=1 / cqm=0 / deadzone=21,11 / fast_pskip=1 / chroma_qp_offset=-3 / threads=6 / lookahead_threads=1 / sliced_threads=0 / nr=0 / decimate=1 / interlaced=0 / bluray_compat=0 / constrained_intra=0 / fgo=0 / bframes=8 / b_pyramid=2 / b_adapt=2 / b_bias=0 / direct=1 / weightb=1 / open_gop=0 / weightp=2 / keyint=250 / keyint_min=25 / scenecut=40 / intra_refresh=0 / rc_lookahead=60 / rc=crf / mbtree=1 / crf=18.0 / qcomp=0.60 / qpmin=0 / qpmax=69 / qpstep=4 / ip_ratio=1.40 / aq=2:1.00
Язык : English
Default : Да
Forced : Нет
Аудио
Идентификатор : 2
Формат : MPEG Audio
Версия формата : Version 1
Профиль формата : Layer 2
Идентификатор кодека : A_MPEG/L2
Идентификатор кодека/Подсказка : MP2
Продолжительность : 43 м.
Вид битрейта : Постоянный
Битрейт : 192 Кбит/сек
Каналы : 2 канала
Частота : 48,0 КГц
Метод сжатия : С потерями
Задержка видео : 16 мс.
Размер потока : 60,3 Мбайт (9%)
Язык : English
Default : Да
Forced : Нет

Скриншоты



Показать сообщения:    

Текущее время: 15-Дек 04:39

Часовой пояс: UTC ± 0


Вы не можете начинать темы
Вы не можете отвечать на сообщения
Вы не можете редактировать свои сообщения
Вы не можете удалять свои сообщения
Вы не можете голосовать в опросах
Вы не можете прикреплять файлы к сообщениям
Вы не можете скачивать файлы

!ВНИМАНИЕ!
Сайт не предоставляет электронные версии произведений, а занимается лишь коллекционированием и каталогизацией ссылок, присылаемых и публикуемых на форуме нашими читателями. Если вы являетесь правообладателем какого-либо представленного материала и не желаете, чтобы ссылка на него находилась в нашем каталоге, свяжитесь с нами, и мы незамедлительно удалим ее. Файлы для обмена на трекере предоставлены пользователями сайта, и администрация не несет ответственности за их содержание. Просьба не заливать файлы, защищенные авторскими правами, а также файлы нелегального содержания!