Важное объявление!
У Нас Все раздачи мультитрекерные, при нуле пиров в релизах, можете смело вставать на закачку!
 
Автор Сообщение

HUNTER

Стаж:
4 года 7 месяцев
Сообщений:
61564

Репутация: 101

[+] [-]
Вне форума [Профиль] [ЛС]

Радуга / Duga / The Rainbow
Страна: Хорватия
Жанр: Драма
Продолжительность: 01:11:30
Год выпуска: 2010
Перевод: Одноголосый закадровый (Max Nabokov)
Русские субтитры: нет
Режиссёр: Йошко Марусич / Josko Marusic
Роли озвучивали: Йошко Марусич / Josko Marusic
Описание: По мотивам произведений, Динко Шимуновича: "Радуга" и "Алкар". Сюжет фильма разворачивается вокруг ежегодного рыцарского турнира "Алка", который проходит в городе Синь (Хорватия). Турнир посвящен трехсотлетию победы жителей долины реки Цетина над турками. Здесь описываются те далекие события, что принесли немало бед и лишений населению Синьско Поля, как впрочем и всей Хорватии. Но не только о легендарных подвигах и сражениях с туроками пойдет речь в этом фильме. Также о людях, которые жили в разные времена в Цетинской Краине… о маленькой девочке Брунгильде по прозвищу "Срна" (что означает - лань), которая мечтала стать мальчиком, чтобы принять участие в турнире "Алка", и ее непростых взаимоотношениях с родителями… о девушке, Марте и ее друге детства, Салко… о страстной и безнадежной любви Салко к Марте… о том, как она предпочла его, его же отцу, жестокому гайдуку, Рашице… о злодеяниях Рашицы… других судьбах… их переплетениях, где каждая судьба человека как нить соединяющая два начала, рождение и смерть. История печальна, но познавательна, как жизнь, в которой прав не тот, кто прав, а тот, кто счастлив.
Доп. информация: Крешимир Микич (рассказчик, голос за кадром)
Янко Попович Воларич, Луция Шполярч , Матиа Вукечевич
Семпл: http://multi-up.com/1121363
Качество: DVDRip
Формат: AVI
Видео: Xvid 704x400 25fps 1636kbps [V: mpeg4 advanced simple profile, yuv420p, 704x400, 1636 kb/s
Аудио 1: Dolby AC3 48000Hz 6ch 384kbps [A: ac3, 48000 Hz, 5.1, 384 kb/s] (рус)
Аудио 2: Dolby AC3 48000Hz 6ch 384kbps [A: ac3, 48000 Hz, 5.1, 384 kb/s] (хор. отдельный файл)

Подробные технические данные

GeneralComplete name : D:\КВН\DUGA\Duga Josko Marusic.aviFormat : AVIFormat/Info : Audio Video InterleaveFile size : 1.01 GiBDuration : 1 h 11 minOverall bit rate : 2 031 kb/sWriting application : VirtualDubMod 1.5.10.3 | www.virtualdub-fr.org || (build 2550/release)Writing library : VirtualDubMod build 2550/release
VideoID : 0Format : MPEG-4 VisualFormat profile : Advanced Simple@L5Format settings, BVOP : 1Format settings, QPel : NoFormat settings, GMC : No warppointsFormat settings, Matrix : Default (H.263)Codec ID : XVIDCodec ID/Hint : XviDDuration : 1 h 11 minBit rate : 1 637 kb/sWidth : 704 pixelsHeight : 400 pixelsDisplay aspect ratio : 16:9Frame rate : 25.000 FPSColor space : YUVChroma subsampling : 4:2:0Bit depth : 8 bitsScan type : ProgressiveCompression mode : LossyBits/(Pixel*Frame) : 0.232Stream size : 837 MiB (81%)Writing library : XviD 1.2.1 (UTC 2008-12-04)
AudioID : 1Format : AC-3Format/Info : Audio Coding 3Mode extension : CM (complete main)Format settings, Endianness : BigCodec ID : 2000Duration : 1 h 11 minBit rate mode : ConstantBit rate : 384 kb/sChannel(s) : 6 channelsChannel positions : Front: L C R, Side: L R, LFESampling rate : 48.0 kHzFrame rate : 31.250 FPS (1536 spf)Compression mode : LossyStream size : 196 MiB (19%)Alignment : Split accross interleavesInterleave, duration : 40 ms (1.00 video frame)Interleave, preload duration : 500 ms

_________________
Показать сообщения:    

Текущее время: Сегодня 19:10

Часовой пояс: GMT



Вы не можете начинать темы
Вы не можете отвечать на сообщения
Вы не можете редактировать свои сообщения
Вы не можете удалять свои сообщения
Вы не можете голосовать в опросах
Вы не можете прикреплять файлы к сообщениям
Вы не можете скачивать файлы
Наши партнеры: интернет магазин Ивановского трикотажа textilla.ru