Ивановский Торрент трекер
Яндекс.Погода
 

[Цитировать]
HUNTER

Ради любви к Поппее / За любовь к Поппее / Per amore di Poppea
Страна: Италия
Студия: Dania Cinematografica
Жанр: комедия
Год выпуска: 1977
Продолжительность: 01:25:21
Перевод: Одноголосый закадровый Andi999
Cубтитры: русские Каптелов
Оригинальная аудиодорожка: итальянский
Режиссер: Мариано Лауренти / Mariano Laurenti
В ролях: Мария Бакса, Джанфранко Д’Анджело, Альваро Витали, Оресте Лионнелло, Тони Уччи, Алисия Леони, Тиберио Мурджа, Отелло Беларди, Перси Хоган
Описание: Тицию и Кайо, неразлучной парочке мелких пройдох, не повезло. Не желая попасть на военную службу, они решают скрыться, облачившись в женскую одежду, но попадаются стражникам. Не будучи в силах подтвердить свое право на свободу, незадачливые беглецы оказались проданными в рабство. Но все, что не делается — к лучшему. Новоявленные рабыни Тиция и Кайя попадают в число личной челяди императрицы Поппеи, которой срочно требуются доверенные наперсницы, чтобы помогать наставлять рога самовлюбленному Нерону. Услуги пронырливых мошенников оказываются Поппее очень кстати…
Доп. информация: Русская звуковая дорожка и субтитры взяты с этой раздачи http://rutracker.org/forum/viewtopic.php?t=5261438 автору большое спасибо.
При пересборе двд были использованы программы:
VirtualDubMod_1_5_10_2_All_inclusive - извлечение русской дорожки из рипа
PgcDemux - разделение компонентов диска на файлы
Muxman - мультиплексирование и авторинг DVD
VobBlanker - реавторинг DVD

Скрин завершения проекта

Бонусы: Биографии, интервью.
Сэмпл: http://sendfile.su/1255001
Тип релиза: DVD5 (Custom)
Контейнер: DVD-Video
Видео: PAL 16:9 (720x576) VBR Auto Letterboxed
Аудио: Russian (Dolby AC3, 192 Кбит/сек, 2 ch)
Аудио 2: Italiano (Dolby AC3, 192 Кбит/сек, 2 ch)
Формат субтитров: prerendered (DVD/IDX+SUB)

DVDInfo

Title: Per amore di Poppea_1977
Size: 4.34 Gb ( 4 548 606,00 KBytes ) - DVD-5
Enabled regions: 1, 2, 3, 4, 5, 6, 7, 8
VTS_01 :
Play Length: 00:12:10
Video: PAL 4:3 (720x576) VBR
Audio:
Italiano (Dolby AC3, 2 ch)
VTS_02 :
Play Length: 00:08:21
Video: PAL 4:3 (720x576) VBR
Audio:
Italiano (Dolby AC3, 2 ch)
VTS_03 :
Play Length: 01:25:21
Video: PAL 16:9 (720x576) VBR, Auto Letterboxed
Audio:
Russian, AC3, 2/0 (L,R) ch, 192 kbps, Delay 0 mSec
Italiano, AC3, 2/0 (L,R) ch, 192 kbps, Delay 0 mSec
Subtitles:
Russian
Italiano
* Menus Information *
VIDEO_TS Menu
Video:
PAL 4:3 (720x576) VBR
Audio:
Not specified (Dolby AC3, 6 ch)
Italiano Language Unit :
Title Menu
VTS_01 Menu
Video:
PAL 4:3 (720x576) VBR
Italiano Language Unit :
Root Menu
VTS_02 Menu
Video:
PAL 4:3 (720x576) VBR
Italiano Language Unit :
Root Menu
VTS_03 Menu
Video:
PAL 4:3 (720x576) VBR
Audio:
Not specified (Dolby AC3, 2 ch)
Italiano Language Unit :
Root Menu
Subpicture Menu
Chapter (PTT) Menu

MediaInfo

Общее
Полное имя : C:\1\DVD ГОТОВ\Per amore di Poppea_1977\VIDEO_TS\VTS_03_1.VOB
Формат : MPEG-PS
Размер файла : 1024 Мбайт
Продолжительность : 24 м.
Режим общего битрейта : Переменный
Общий поток : 5814 Кбит/сек
Видео
Идентификатор : 224 (0xE0)
Формат : MPEG Video
Версия формата : Version 2
Профиль формата : Main@Main
Параметр BVOP формата : Да
Параметр матрицы формата : Выборочная
Параметр GOP формата : M=2, N=13
Структура изображения : Frame
Продолжительность : 24 м.
Вид битрейта : Переменный
Битрейт : 5314 Кбит/сек
Максимальный битрейт : 8000 Кбит/сек
Ширина : 720 пикселей
Высота : 576 пикселей
Соотношение сторон : 16:9
Частота кадров : 25,000 кадров/сек
Стандарт вещания : PAL
Цветовое пространство : YUV
Субдискретизация насыщенности : 4:2:0
Битовая глубина : 8 бит
Тип развёртки : Чересстрочная
Порядок развёртки : Верхнее поле первое
Метод сжатия : С потерями
Бит/(Пиксели*Кадры) : 0.513
Временной код первого кадра : 10:00:00:00
Оригинал временного кода : Group of pictures header
GOP, открыто/закрыто : Закрыто
Размер потока : 936 Мбайт (91%)
Основные цвета : BT.601 NTSC
Характеристики трансфера : BT.601
Коэффициенты матрицы : BT.601
Аудио #1
Идентификатор : 189 (0xBD)-128 (0x80)
Формат : AC-3
Формат/Информация : Audio Coding 3
Расширение режима : CM (complete main)
Параметр Endianness формата : Big
Режим смешивания : DVD-Video
Продолжительность : 24 м.
Вид битрейта : Постоянный
Битрейт : 192 Кбит/сек
Каналы : 2 канала
Расположение каналов : Front: L R
Частота : 48,0 КГц
Метод сжатия : С потерями
Размер потока : 33,8 Мбайт (3%)
Аудио #2
Идентификатор : 189 (0xBD)-129 (0x81)
Формат : AC-3
Формат/Информация : Audio Coding 3
Расширение режима : CM (complete main)
Параметр Endianness формата : Big
Режим смешивания : DVD-Video
Продолжительность : 24 м.
Вид битрейта : Постоянный
Битрейт : 192 Кбит/сек
Каналы : 2 канала
Расположение каналов : Front: L R
Частота : 48,0 КГц
Метод сжатия : С потерями
Размер потока : 33,8 Мбайт (3%)
Меню

Обложка и блин

Скриншоты меню

Скриншоты

Показать сообщения:    

Текущее время: 22-Сен 05:03

Часовой пояс: UTC - 1


Вы не можете начинать темы
Вы не можете отвечать на сообщения
Вы не можете редактировать свои сообщения
Вы не можете удалять свои сообщения
Вы не можете голосовать в опросах
Вы не можете прикреплять файлы к сообщениям
Вы не можете скачивать файлы

!ВНИМАНИЕ!
Сайт не предоставляет электронные версии произведений, а занимается лишь коллекционированием и каталогизацией ссылок, присылаемых и публикуемых на форуме нашими читателями. Если вы являетесь правообладателем какого-либо представленного материала и не желаете, чтобы ссылка на него находилась в нашем каталоге, свяжитесь с нами, и мы незамедлительно удалим ее. Файлы для обмена на трекере предоставлены пользователями сайта, и администрация не несет ответственности за их содержание. Просьба не заливать файлы, защищенные авторскими правами, а также файлы нелегального содержания!