Важное объявление!
У Нас Все раздачи мультитрекерные, при нуле пиров в релизах, можете смело вставать на закачку!
 
Автор Сообщение

HUNTER

Стаж:
4 года 7 месяцев
Сообщений:
61449

Репутация: 101

[+] [-]
Вне форума [Профиль] [ЛС]

Равные / Equals
Страна: США
Студия: Freedom Media
Жанр: фантастика, драма, мелодрама
Год выпуска: 2015
Продолжительность: 01:42:12
Перевод: Профессиональный (дублированный)
Cубтитры: Rus, Eng
Оригинальная аудиодорожка: английский
Режиссер: Дрейк Доримус / Drake Doremus
В ролях: Николас Холт, Кристен Стюарт, Гай Пирс, Джеки Уивер, Тоби Хасс, Дэвид Селби, Кейт Лин Шейл, Ребекка Хэзлвуд, Тео Ю, Аврора Периньо
Описание: Фильм «Равные» рассказывает историю Сайласа, который живет в будущем, в обществе, названном «Коллектив». Жители этого современного мира — новое поколение людей, называемое «Равными». Равные — это мирные, спокойные, вежливые и справедливые люди, и жизнь в «Коллективе» идеальна. В нем не существует ни бедности, ни жадности, ни насилия, ни эмоций… Но над обществом нависает новая угроза: заболевание «SOS» или «Синдром Общественной Сознательности», жертвы которого подвергаются всему, чего, как они думали, избежали: депрессия, уязвимость, страх, любовь. Если правительство обнаружит человека, зараженного «SOS», его сразу же заберут в Нору, после чего этого человека уже никто и никогда не увидит.
Когда главный герой обнаруживает, что он тоже заражен, он становится изгоем, но замечает одного человека, который, как ему кажется, понимает, через что ему приходится проходить. В это время правительство заявляет о том, что лекарство от болезни «включенных эмоций» было найдено, и главные герои вынуждены искать способ выжить.
[img]https://rating.kinopoisk.ru/806980.gif[/img]
Исходник: Equals (2015) [US Transfer] 1080p BD-Remux
Тип релиза: BDRip 720p / Tonik
Контейнер: MKV
Видео: MPEG-4 AVC, 5009 Кбит/с, 1280x694, 23,976 fps
Аудио: Rus, DTS, 1510 kb/s (6 ch), 48 kHz
Аудио 2: Eng, DTS, 1510 kb/s (6 ch), 48 kHz
Формат субтитров: softsub (SRT)

MediaInfo

x264 [info]: frame I:807 Avg QP:11.63 size:111417
x264 [info]: frame P:26427 Avg QP:13.48 size: 55660
x264 [info]: frame B:119790 Avg QP:15.36 size: 20046
x264 [info]: consecutive B-frames: 1.0% 3.5% 3.5% 5.9% 13.0% 41.5% 10.1% 2.1% 5.3% 4.5% 6.9% 2.8%
Format : Matroska
Format version : Version 4 / Version 2
File size : 5.85 GiB
Duration : 1h 42mn
Overall bit rate : 8 190 Kbps
Movie name : Равные. (Tonik)
Encoded date : UTC 2016-08-29 03:10:40
Writing application : mkvmerge v7.1.0 ('Good Love') 64bit built on Jul 27 2014 13:06:55
Writing library : libebml v1.3.0 + libmatroska v1.4.1
DURATION : 01:31:27.491000000
NUMBER_OF_FRAMES : 805
NUMBER_OF_BYTES : 30705
_STATISTICS_WRITING_APP : mkvmerge v7.1.0 ('Good Love') 64bit built on Jul 27 2014 13:06:55
_STATISTICS_WRITING_DATE_UTC : 2016-08-29 03:10:40
_STATISTICS_TAGS : BPS DURATION NUMBER_OF_FRAMES NUMBER_OF_BYTES
Video
ID : 1
Format : AVC
Format/Info : Advanced Video Codec
Format profile : High@L4.1
Format settings, CABAC : Yes
Format settings, ReFrames : 9 frames
Codec ID : V_MPEG4/ISO/AVC
Duration : 1h 42mn
Bit rate : 5 009 Kbps
Width : 1 280 pixels
Height : 694 pixels
Display aspect ratio : 1.85:1
Frame rate mode : Constant
Frame rate : 23.976 fps
Color space : YUV
Chroma subsampling : 4:2:0
Bit depth : 8 bits
Scan type : Progressive
Bits/(Pixel*Frame) : 0.235
Stream size : 3.58 GiB (61%)
Title : Tonik
Writing library : x264 core 148 r2705 3f5ed56
Encoding settings : cabac=1 / ref=9 / deblock=1:-3:-3 / analyse=0x3:0x133 / me=umh / subme=11 / psy=1 / psy_rd=1.00:0.00 / mixed_ref=1 / me_range=32 / chroma_me=1 / trellis=2 / 8x8dct=1 / cqm=0 / deadzone=21,11 / fast_pskip=0 / chroma_qp_offset=-2 / threads=12 / lookahead_threads=3 / sliced_threads=0 / nr=0 / decimate=0 / interlaced=0 / bluray_compat=0 / constrained_intra=0 / bframes=11 / b_pyramid=2 / b_adapt=2 / b_bias=0 / direct=1 / weightb=1 / open_gop=0 / weightp=2 / keyint=250 / keyint_min=23 / scenecut=40 / intra_refresh=0 / rc=crf / mbtree=0 / crf=16.8 / qcomp=0.60 / qpmin=0 / qpmax=69 / qpstep=4 / ip_ratio=1.40 / pb_ratio=1.30 / aq=1:0.80
Language : English
Default : Yes
Forced : No
DURATION : 01:42:12.136000000
NUMBER_OF_FRAMES : 147024
NUMBER_OF_BYTES : 3962184696
_STATISTICS_WRITING_APP : mkvmerge v7.1.0 ('Good Love') 64bit built on Jul 27 2014 13:06:55
_STATISTICS_WRITING_DATE_UTC : 2016-08-29 03:10:40
_STATISTICS_TAGS : BPS DURATION NUMBER_OF_FRAMES NUMBER_OF_BYTES
Audio #1
ID : 2
Format : DTS
Format/Info : Digital Theater Systems
Mode : 16
Format settings, Endianness : Big
Codec ID : A_DTS
Duration : 1h 42mn
Bit rate mode : Constant
Bit rate : 1 509 Kbps
Channel(s) : 6 channels
Channel positions : Front: L C R, Side: L R, LFE
Sampling rate : 48.0 KHz
Bit depth : 16 bits
Compression mode : Lossy
Stream size : 1.08 GiB (18%)
Language : Russian
Default : Yes
Forced : No
Audio #2
ID : 3
Format : DTS
Format/Info : Digital Theater Systems
Mode : 16
Format settings, Endianness : Big
Codec ID : A_DTS
Duration : 1h 42mn
Bit rate mode : Constant
Bit rate : 1 509 Kbps
Channel(s) : 6 channels
Channel positions : Front: L C R, Side: L R, LFE
Sampling rate : 48.0 KHz
Bit depth : 24 bits
Compression mode : Lossy
Stream size : 1.08 GiB (18%)
Language : English
Default : No
Forced : No
Text #1
ID : 4
Format : UTF-8
Codec ID : S_TEXT/UTF8
Codec ID/Info : UTF-8 Plain Text
Language : Russian
Default : No
Forced : No
Text #2
ID : 5
Format : UTF-8
Codec ID : S_TEXT/UTF8
Codec ID/Info : UTF-8 Plain Text
Language : English
Default : No
Forced : No
Menu
00:00:00.000 : :Chapter 01
00:07:24.860 : :Chapter 02
00:13:12.124 : :Chapter 03
00:20:12.752 : :Chapter 04
00:27:01.869 : :Chapter 05
00:36:32.105 : :Chapter 06
00:40:24.170 : :Chapter 07
00:44:55.024 : :Chapter 08
00:48:31.823 : :Chapter 09
00:56:15.203 : :Chapter 10
01:01:05.036 : :Chapter 11
01:09:11.145 : :Chapter 12
01:15:32.569 : :Chapter 13
01:21:38.560 : :Chapter 14
01:26:01.113 : :Chapter 15
01:29:53.887 : :Chapter 16
01:42:11.917 : :Chapter 17

Скриншоты


_________________
Показать сообщения:    

Текущее время: Сегодня 18:51

Часовой пояс: GMT



Вы не можете начинать темы
Вы не можете отвечать на сообщения
Вы не можете редактировать свои сообщения
Вы не можете удалять свои сообщения
Вы не можете голосовать в опросах
Вы не можете прикреплять файлы к сообщениям
Вы не можете скачивать файлы
Наши партнеры: интернет магазин Ивановского трикотажа textilla.ru