Важное объявление!
У Нас Все раздачи мультитрекерные, при нуле пиров в релизах, можете смело вставать на закачку!
 
Автор Сообщение

HUNTER

Стаж:
4 года 5 месяцев
Сообщений:
60874

Репутация: 101

[+] [-]
Вне форума [Профиль] [ЛС]

Рабыни / Доисторические женщины / Рабские девочки / Рабыни страсти
Slave girls / Prehistoric women

16:9 PAL R2
Слоган: «Beaten into submission . . . turned into slaves . . . man at the mercy of a Kingdom of Prehistoric Women!»
Страна: Великобритания
Студия: Seven Arts Productions, Hammer Film Productions
Жанр: фэнтези, приключения
Год выпуска: 1967
Продолжительность: 01:26:42
Перевод: Профессиональный (многоголосый закадровый)
Cубтитры: русские(Dr@gon-XXI)
Оригинальная аудиодорожка: английский
Режиссер: Майкл Каррерас / Michael Carreras
В ролях: Мартин Бесвик, Эдина Ронай, Майкл Латимер, Стефани Рэндолл, Кэрол Уайт, Александра Стивенсон, Ивонн Хорнер, Сидни Бромли, Фрэнк Хейден, Роберт Рэглан ...
Описание: Дэвид Маршан, отличный гид и знаток джунглей похищен одним из племени аборигенов, желающих принести его на жертвенный алтарь своему божеству — белому носорогу. Казалось бы, что его судьба предрешена, как вдруг, он переместился в прошлое, в доисторические времена, когда белокурые женщины были рабынями темноволосых. Дэвид отвёрг любовь королевы темноволосых, за это он был заточен в темницу, но приключения только начинаются…
Доп. информация: Диск собран из Slave Girls_(Prehistoric Women)_1967_DVD5 R2 найденного в сети.
Это диск №14 из 21 дисковой коллекции The Ultimate Hammer Collection
Бонусы: Трейлер.
Меню: Анимированное, озвученное, на английском.Меню неотредактировано, переключение звуковых дорожек с пульта.
Фильм автоматический стартует с рус. звук. дорожкой.
--Спасибо за рус. многоголосый Aeon2013
Спасибо за рус. субтитры Dr@gon-XXI
-- --Slave Girls_(Prehistoric Women)_1967_DVD5 R2_Sample_.rar--Тип релиза: DVD5 (Custom)
Контейнер: DVD-Video
Видео: PAL 16:9 (720x576) VBR Auto Letterboxed, ~ 6003.77 kbps avg
Аудио 1: English, AC3, 2/0 (L,R) ch, 224 kbps, Delay 0 mSec
Аудио 2: Russian, AC3, 2/0 (L,R) ch, 192 kbps, Delay 0 mSec
Формат субтитров: prerendered (DVD/IDX+SUB)
MediaInfo
General
Complete name : Slave Girls_(Prehistoric Women)_1967_DVD5 R2\VIDEO_TS\VTS_01_2.VOB
Format : MPEG-PS
File size : 1 024 MiB
Duration : 23mn 44s
Overall bit rate mode : Variable
Overall bit rate : 6 028 Kbps
Video
ID : 224 (0xE0)
Format : MPEG Video
Format version : Version 2
Format profile : Main@Main
Format settings, BVOP : Yes
Format settings, Matrix : Default
Format settings, GOP : M=3, N=15
Duration : 23mn 44s
Bit rate mode : Variable
Bit rate : 5 492 Kbps
Maximum bit rate : 7 860 Kbps
Width : 720 pixels
Height : 576 pixels
Display aspect ratio : 16:9
Frame rate : 25.000 fps
Standard : PAL
Color space : YUV
Chroma subsampling : 4:2:0
Bit depth : 8 bits
Scan type : Interlaced
Scan order : Top Field First
Compression mode : Lossy
Bits/(Pixel*Frame) : 0.530
Time code of first frame : 01:23:24:20
Time code source : Group of pictures header
Stream size : 933 MiB (91%)
Audio #1
ID : 189 (0xBD)-128 (0x80)
Format : AC-3
Format/Info : Audio Coding 3
Mode extension : CM (complete main)
Format settings, Endianness : Big
Muxing mode : DVD-Video
Duration : 23mn 44s
Bit rate mode : Constant
Bit rate : 224 Kbps
Channel(s) : 2 channels
Channel positions : Front: L R
Sampling rate : 48.0 KHz
Bit depth : 16 bits
Compression mode : Lossy
Delay relative to video : -824ms
Stream size : 38.1 MiB (4%)
Audio #2
ID : 189 (0xBD)-129 (0x81)
Format : AC-3
Format/Info : Audio Coding 3
Mode extension : CM (complete main)
Format settings, Endianness : Big
Muxing mode : DVD-Video
Duration : 23mn 44s
Bit rate mode : Constant
Bit rate : 192 Kbps
Channel(s) : 2 channels
Channel positions : Front: L R
Sampling rate : 48.0 KHz
Bit depth : 16 bits
Compression mode : Lossy
Delay relative to video : -728ms
Stream size : 32.6 MiB (3%)
Menu
DVD Info
Title: Slave Girls_(Prehistoric Women)_1967_DVD5 R2
Size: 3.75 Gb ( 3 930 462,00 KBytes ) - DVD-5
Enabled regions: 1, 2, 3, 4, 5, 6, 7, 8
VTS_01 :
Play Length: 01:26:42+00:00:00+00:00:18+00:00:10+00:00:04+00:00:00+00:02:09
Video: PAL 16:9 (720x576) VBR, Auto Letterboxed
Audio:
English (Dolby AC3, 2 ch)
Russian (Dolby AC3, 2 ch)
Subtitles:
Russian
* Menus Information *
VIDEO_TS Menu
Video:
NTSC 4:3 (720x480) VBR
Auto Pan&Scan, Auto Letterboxed
English Language Unit :
Title Menu
VTS_01 Menu
Video:
PAL 16:9 (720x576) VBR
Auto Letterboxed
Audio:
Not specified (Dolby AC3, 2 ch)
English Language Unit :
Root Menu
П. О.
PgcDemux 1.2.0.5 - разделение компонентов диска на файлы;
BeSweetv1.5b31+BeLight 0.21 - AC3 -> Wav
Faad v.2.6.1 - AAC -> Wav
Sound Forge pro 10 - Wav -> AC3
MaestroSBT-Unicode-2.6.2.1 - Создание субтитров
DVDSubEdit -- Version 1.52 - Правка (цветовых схем) субтитров
MuxMan DVD authoring Professional 1.4.4 - мультиплексирование и авторинг DVD;
DVDRemake Pro 3.6.4 - реавторинг DVD;
DVD Shrink 3.2 - Сэмпл
VLC - Скриншоты-
-
-

-
-
-BeSweet v1.5b31 by DSPguru.
--------------------------
Using azid.dll v1.9 (b922) by Midas (midas@egon.gyaloglo.hu).
Logging start : 05/04/14 , 14:16:51.
BeSweet.exe -core( -input C:\Temp\Women\AudioFile_80.ac3 -output C:\Temp\Women\AudioFile_80.wav -2ch -logfile C:\Temp\Women\AudioFile_80.log ) -azid( -s mono -c normal -L -3db )
[00:00:00:000] +------- BeSweet -----
[00:00:00:000] | Input : C:\Temp\Women\AudioFile_80.ac3
[00:00:00:000] | Output: C:\Temp\Women\AudioFile_80.wav
[00:00:00:000] | Floating-Point Process: No
[00:00:00:000] +-------- AZID -------
[00:00:00:000] | Input Channels Mode: 2/0, Bitrate: 224kbps
[00:00:00:000] | Output Stereo mode: Dolby surround 2 compatible
[00:00:00:000] | Total Gain: 0.000dB, Compression: Normal
[00:00:00:000] | LFE levels: To LR -3.0dB, To LFE 0.0dB
[00:00:00:000] | Center mix level: BSI
[00:00:00:000] | Surround mix level: BSI
[00:00:00:000] | Dialog normalization: No
[00:00:00:000] | Rear channels filtering: No
[00:00:00:000] | Source Sample-Rate: 48.0KHz
[00:00:00:000] +---------------------
[01:26:42:464] Conversion Completed !
[01:26:42:464] Actual Avg. Bitrate : 710kbps
[00:01:15:000] <-- Transcoding Duration
Logging ends : 05/04/14 , 14:18:06.
--MuxMan version 1.4.4
new project database size 400, base 26c0018.
new pointer management list size 50.
new clipboard database size 20, base 5e8d40.
Accepted audio C:\Temp\Women\AudioFile_80.ac3
Accepted audio C:\Temp\Women\RUS_-_.ac3
expanded database to 602 entries.
expanded database to 804 entries.
expanded database to 1006 entries.
expanded database to 1210 entries.
16:31:24 Begin multiplex VTS01.
Title Segment List
Segment_1 non-seamless
Encoded stream 20 is script stream 1.
Buffering audio track 1 file C:\Temp\Women\AudioFile_80.ac3.
Buffering audio track 2 file C:\Temp\Women\RUS_-_.ac3.
Maximum audio duration 260124 fields.
Multiplex delay set to 25257.
new graphics buffer size 414720.
Positioned C:\Temp\Women\VideoFile.m2v to 00:00:00:00
Starting scene Segment_1_scn1 at 00:00:00:00
Starting scene Segment_1_scn2 at 00:07:44:20
Starting scene Segment_1_scn3 at 00:15:11:11
Starting scene Segment_1_scn4 at 00:21:45:05
Starting scene Segment_1_scn5 at 00:29:52:08
Starting scene Segment_1_scn6 at 00:38:00:17
Starting scene Segment_1_scn7 at 00:45:26:09
Starting scene Segment_1_scn8 at 00:53:26:00
Starting scene Segment_1_scn9 at 01:00:28:00
Starting scene Segment_1_scn10 at 01:08:03:03
Starting scene Segment_1_scn11 at 01:15:24:02
Starting scene Segment_1_scn12 at 01:18:35:02
SeqEnd at D50AE7CB.
Bytes remaining in buffer = 0.
Bitrate - avg: 6025248, min: 655360 (lba 1913188), max: 9893415 (lba 287005).
Shortest GOP has 6 fields, longest GOP has 30 fields.
Fields: 260126, VOBU: 8625, Sectors: 1913237.
16:36:13 Begin multiplex VMG.
16:36:13 End multiplex.
Summary of Virtual Memory Management
VM base 026c0000, reserved 60000000, commited 00020000, free 1458, disposable 0.
handle 1, size 1eba8 (125840 data), owner 80000001, time 0, locks 1 0 0, lcnt 1.
Locked by DBinit.
handle 0, size 1458 (5184 data), owner 0, time 0, locks 0 0 0, lcnt 0.
Скриншоты менюСкриншотыСкриншоты доп. материалов
-
-
-
Коврики и Блинчики

_________________
Показать сообщения:    

Текущее время: Сегодня 08:57

Часовой пояс: GMT



Вы не можете начинать темы
Вы не можете отвечать на сообщения
Вы не можете редактировать свои сообщения
Вы не можете удалять свои сообщения
Вы не можете голосовать в опросах
Вы не можете прикреплять файлы к сообщениям
Вы не можете скачивать файлы
Наши партнеры: интернет магазин Ивановского трикотажа textilla.ru