Важное объявление!
У Нас Все раздачи мультитрекерные, при нуле пиров в релизах, можете смело вставать на закачку!
Статистика раздачи
Размер:     |    Зарегистрирован:     |    Скачан:     |   
Нет
 
     
 
 
Автор Сообщение

mihis

[Профиль] [ЛС]

Рабство / Trade«You'll pay for this.»
Год выпуска: 2007
Страна: Германия, США, Brass Hat Films, Centropolis Entertainmen, Lionsgate, Reelmachine, Roadside Attractions, VIP 4 Medienfonds
Жанр: Криминал, драма, триллер
Продолжительность: 01:54:34
Перевод: 2 Профессиональный (многоголосый, закадровый) R5, Первый канал + Оригинал
Режиссер: Марко Кройцпайнтнер
В ролях: Кевин Клайн, Сизар Рамос, Алиция Бахледа-Цуруш, Паулина Гайтан, Марко Перес, Линда Эмонд, Зак Уорд, Кейт дель Кастильо, Тим Рейд, Павел Личникофф, Наталия Травен, Гильермо Иван, Кристиан Васкес, Хосе Сефами, Лелэнд Паскуаль, Эрен Зумая, Норма Анджелика, Кэтлин Гати, Анна Мария Хорсфорд, Энтони Кривелло, Уильям Стерчи, Джон Вайли, Рио Александр, Мария Луиза Коронел, Дж.Д. Гарфилд, Эйми-Линн Чедвик, Мэттью Тиммонс, Брюс ДэХеррера, Майк Каррильо, Доминик Чавез, Майк Хэтфилд, Барбара Мэйфилд, Мэттью МакДаффи, Грант Мартин, Бутс Саутерленд, Джениа Михаэлла, Росс Келли, Джейсон Кларк
Описание: Похищенная в секс-рабство сестра, противостояние группе международных преступников-сутенеров, в такой ситуации оказывается герой фильма — Хорхе. Юноша решает бросить вызов обстоятельствам, но он оказывается не одинок в своем горе, на помощь ему приходит полицейский Рэй, у которого подобным же образом украли молодую дочь. Вместе они пытаются противостоять преступному бизнесу и вызволить девушек из страшного и порочного плена.

Качество: DVDRip
Формат: AVI
Видео кодек: XviD
Аудио кодек: AC3
Видео: 720x304 (2.37:1), 25 fps, XviD MPEG-4 ~1374 kbps avg, 0.25 bit/pixe
Аудио #1: AC3, 48.0 KHz, 6 ch, 448 Kbps, CBR R5
Аудио #2: AC3, 48.0 KHz, 6 ch, 448 Kbps, CBR Первый канал
Аудио #3: AC3, 48.0 KHz, 6 ch, 448 Kbps, CBR Eng

MediaInfo

Общее
Полное имя : D:\Video\Trade.2007.DVDRip_by_FIF-baga.avi
Формат : AVI
Формат/Информация : Audio Video Interleave
Профиль формата : OpenDML
Размер файла : 2,18 Гбайт
Продолжительность : 1 ч. 54 м.
Общий поток : 2726 Кбит/сек
Программа кодирования : VirtualDubMod 1.5.10.2 (build 2540/release)
Библиотека кодирования : VirtualDubMod build 2540/release
Видео
Идентификатор : 0
Формат : MPEG-4 Visual
Профиль формата : Advanced Simple@L5
Параметр BVOP формата : 1
Параметр QPel формата : Нет
Параметр GMC формата : Без точки перехода
Параметр матрицы формата : Default (MPEG)
Идентификатор кодека : XVID
Идентификатор кодека/Подсказка : XviD
Продолжительность : 1 ч. 54 м.
Битрейт : 1357 Кбит/сек
Ширина : 720 пикселей
Высота : 304 пикселя
Соотношение сторон : 2,35:1
Частота кадров : 25,000 кадров/сек
Цветовое пространство : YUV
Субдискретизация насыщенности : 4:2:0
Битовая глубина : 8 бит
Тип развёртки : Прогрессивная
Метод сжатия : С потерями
Бит/(Пиксели*Кадры) : 0.248
Размер потока : 1,09 Гбайт (50%)
Библиотека кодирования : XviD 1.2.1 (UTC 2008-12-04)
Аудио #1
Идентификатор : 1
Формат : AC-3
Формат/Информация : Audio Coding 3
Расширение режима : CM (complete main)
Параметр Endianness формата : Big
Идентификатор кодека : 2000
Продолжительность : 1 ч. 54 м.
Вид битрейта : Постоянный
Битрейт : 448 Кбит/сек
Каналы : 6 каналов
Расположение каналов : Front: L C R, Side: L R, LFE
Частота : 48,0 КГц
Битовая глубина : 16 бит
Метод сжатия : С потерями
Размер потока : 367 Мбайт (16%)
Выравнивание : Разделение по промежуткам
Продолжительность промежутка : 40 мс. (1,00 видеокадр)
Время предзагрузки промежутка : 500 мс.
Аудио #2
Идентификатор : 2
Формат : AC-3
Формат/Информация : Audio Coding 3
Расширение режима : CM (complete main)
Параметр Endianness формата : Big
Идентификатор кодека : 2000
Продолжительность : 1 ч. 54 м.
Вид битрейта : Постоянный
Битрейт : 448 Кбит/сек
Каналы : 6 каналов
Расположение каналов : Front: L C R, Side: L R, LFE
Частота : 48,0 КГц
Битовая глубина : 16 бит
Метод сжатия : С потерями
Размер потока : 367 Мбайт (16%)
Выравнивание : Разделение по промежуткам
Продолжительность промежутка : 40 мс. (1,00 видеокадр)
Время предзагрузки промежутка : 500 мс.
Аудио #3
Идентификатор : 3
Формат : AC-3
Формат/Информация : Audio Coding 3
Расширение режима : CM (complete main)
Параметр Endianness формата : Big
Идентификатор кодека : 2000
Продолжительность : 1 ч. 54 м.
Вид битрейта : Постоянный
Битрейт : 448 Кбит/сек
Каналы : 6 каналов
Расположение каналов : Front: L C R, Side: L R, LFE
Частота : 48,0 КГц
Битовая глубина : 16 бит
Метод сжатия : С потерями
Размер потока : 367 Мбайт (16%)
Выравнивание : Разделение по промежуткам
Продолжительность промежутка : 40 мс. (1,00 видеокадр)
Время предзагрузки промежутка : 500 мс.
 
Показать сообщения:    

Текущее время: Сегодня 08:55

Часовой пояс: GMT



Вы не можете начинать темы
Вы не можете отвечать на сообщения
Вы не можете редактировать свои сообщения
Вы не можете удалять свои сообщения
Вы не можете голосовать в опросах
Вы не можете прикреплять файлы к сообщениям
Вы не можете скачивать файлы