Ивановский Торрент трекер
Яндекс.Погода
 

[Цитировать]
HUNTER

Работодатель / The Employer
Страна: США
Жанр: триллер
Год выпуска: 2013
Продолжительность: 01:28:34
Перевод: Профессиональный (многоголосый закадровый)
Cубтитры: нет
Режиссер: Фрэнк Мерл / Frank Merle
В ролях: Малкольм МакДауэлл, Давид Дастмалчян, Пейдж Ховард, Майкл ДеЛоренцо, Мэттью Уиллиг, Катерина Микайленко, Билли Зейн, Никки Эйкокс, Дэниэл Алдема, Марк Александр Херц
Описание: Пять кандидатов проходили собеседование на работу в большой, успешный конгломерат, чей бизнес окутан тайной. В ночь перед последним этапом собеседования их всех похищают и накачивают наркотиками. На следующий день они просыпаются вместе в запертой комнате, и далее события пойдут совсем не так, как они ожидали…
Сэмпл: http://rusfolder.com/42546626

Тип релиза: HDTV 1080i
Контейнер: TS
Видео: AVC/H.264, PAL, 1920х1080 (16:9), 25 fps, 6598 kbps
Аудио: русский, MP-2, 48000 Hz, 192 Кбит/сек, 2 ch

MediaInfo

Общее
Идентификатор : 1 (0x1)
Полное имя : D:\Работодатель.ts
Формат : MPEG-TS
Размер файла : 4,42 Гбайт
Продолжительность : 1 ч. 28 м.
Режим общего битрейта : Переменный
Общий поток : 7145 Кбит/сек
Максимальный общий битрейт : 35,5 Мбит/сек
Видео
Идентификатор : 4113 (0x1011)
Идентификатор меню : 1 (0x1)
Формат : AVC
Формат/Информация : Advanced Video Codec
Профиль формата : Main@L4.0
Параметр CABAC формата : Да
Параметр ReFrames формата : 3 кадра
Идентификатор кодека : 27
Продолжительность : 1 ч. 28 м.
Вид битрейта : Переменный
Битрейт : 6598 Кбит/сек
Максимальный битрейт : 40,0 Мбит/сек
Ширина : 1920 пикселей
Высота : 1080 пикселей
Соотношение сторон : 16:9
Частота кадров : 25,000 кадров/сек
Стандарт вещания : Component
Цветовое пространство : YUV
Субдискретизация насыщенности : 4:2:0
Битовая глубина : 8 бит
Тип развёртки : Чересстрочная
Порядок развёртки : Верхнее поле первое
Бит/(Пиксели*Кадры) : 0.127
Размер потока : 4,08 Гбайт (92%)
Аудио
Идентификатор : 4352 (0x1100)
Идентификатор меню : 1 (0x1)
Формат : MPEG Audio
Версия формата : Version 1
Профиль формата : Layer 2
Идентификатор кодека : 4
Продолжительность : 1 ч. 28 м.
Вид битрейта : Постоянный
Битрейт : 192 Кбит/сек
Каналы : 2 канала
Частота : 48,0 КГц
Метод сжатия : С потерями
Размер потока : 122 Мбайт (3%)
Язык : Russian

Скриншот c названием фильма

Скриншоты

Показать сообщения:    

Текущее время: 24-Сен 23:55

Часовой пояс: UTC - 1


Вы не можете начинать темы
Вы не можете отвечать на сообщения
Вы не можете редактировать свои сообщения
Вы не можете удалять свои сообщения
Вы не можете голосовать в опросах
Вы не можете прикреплять файлы к сообщениям
Вы не можете скачивать файлы

!ВНИМАНИЕ!
Сайт не предоставляет электронные версии произведений, а занимается лишь коллекционированием и каталогизацией ссылок, присылаемых и публикуемых на форуме нашими читателями. Если вы являетесь правообладателем какого-либо представленного материала и не желаете, чтобы ссылка на него находилась в нашем каталоге, свяжитесь с нами, и мы незамедлительно удалим ее. Файлы для обмена на трекере предоставлены пользователями сайта, и администрация не несет ответственности за их содержание. Просьба не заливать файлы, защищенные авторскими правами, а также файлы нелегального содержания!