Важное объявление!
У Нас Все раздачи мультитрекерные, при нуле пиров в релизах, можете смело вставать на закачку!
 
Автор Сообщение

HUNTER

Стаж:
4 года 10 месяцев
Сообщений:
65462

Репутация: 101

[+] [-]
Вне форума [Профиль] [ЛС]

Пять лет и один день
Страна: Украина
Жанр: драма
Год выпуска: 2012
Продолжительность: 01:34:13
Перевод: Не требуется
Cубтитры: нет
Режиссер: Борис Квашнев
В ролях: Алина Сергеева, Юрий Батурин, Юлия Галкина, Сергей Радченко, Сергей Романюк
Описание: Мирослава приходит в себя после 5 лет комы и узнает, что за эти годы изменился не только мир вокруг, но и ее собственная жизнь. Мирославу похоронили, считая погибшей в пожаре, ее муж живет с лучшей подругой, которую 6-летняя дочь Настя называет мамой. Отдавать состояние Мирославе и ее собственную дочь муж с подругой не собираются и начинают делать вид, будто не узнают женщину. Отец погиб, друзей в городе, в который Мирослава переехала за несколько месяцев до страшной аварии, нет. Ни денег, ни поддержки, единственное, что есть у женщины — желание вернуть дочь и услышать от нее такое желанное «мама». Преодолев все препятствия и, главное, собственную неверие в свои силы, Мирослава получит желаемое — свое имя, жизнь и любовь маленькой Насти.
Ссылка на другие раздачи
Сэмпл: http://sendfile.su/1148092

Тип релиза: HDTV 1080i
Контейнер: TS
Видео: AVC/H.264, PAL, 1920x1080 (16:9), 10,5 Мбит/сек, 25.000 fps
Аудио: русский, MP2, 2ch, 48,0 КГц, 192 Кбит/сек

MediaInfo

Общее
Идентификатор : 1 (0x1)
Полное имя : C:\Documents and Settings\User\Рабочий стол\Пять лет и один день.ts
Формат : MPEG-TS
Размер файла : 7,41 Гбайт
Продолжительность : 1 ч. 34 м.
Режим общего битрейта : Переменный
Общий поток : 11,3 Мбит/сек
Видео
Идентификатор : 1311 (0x51F)
Идентификатор меню : 1 (0x1)
Формат : AVC
Формат/Информация : Advanced Video Codec
Профиль формата : Main@L4.0
Параметр CABAC формата : Да
Параметр ReFrames формата : 3 кадра
Идентификатор кодека : 27
Продолжительность : 1 ч. 34 м.
Битрейт : 10,5 Мбит/сек
Ширина : 1920 пикселей
Высота : 1080 пикселей
Соотношение сторон : 16:9
Частота кадров : 25,000 кадров/сек
Стандарт вещания : Component
Цветовое пространство : YUV
Субдискретизация насыщенности : 4:2:0
Битовая глубина : 8 бит
Тип развёртки : Чересстрочная
Порядок развёртки : Верхнее поле первое
Бит/(Пиксели*Кадры) : 0.203
Размер потока : 6,91 Гбайт (93%)
Основные цвета : BT.709
Характеристики трансфера : BT.709
Коэффициенты матрицы : BT.709
colour_range : Limited
Аудио
Идентификатор : 1312 (0x520)
Идентификатор меню : 1 (0x1)
Формат : MPEG Audio
Версия формата : Version 1
Профиль формата : Layer 2
Идентификатор кодека : 3
Продолжительность : 1 ч. 34 м.
Вид битрейта : Постоянный
Битрейт : 192 Кбит/сек
Каналы : 2 канала
Частота : 48,0 КГц
Метод сжатия : С потерями
Размер потока : 129 Мбайт (2%)
Язык : Russian

Скриншот с названием фильма

Скриншоты


_________________
Показать сообщения:    

Текущее время: Сегодня 20:07

Часовой пояс: GMT



Вы не можете начинать темы
Вы не можете отвечать на сообщения
Вы не можете редактировать свои сообщения
Вы не можете удалять свои сообщения
Вы не можете голосовать в опросах
Вы не можете прикреплять файлы к сообщениям
Вы не можете скачивать файлы