Ивановский Торрент трекер
Яндекс.Погода
 

[Цитировать]
HUNTER

Пятница 13-е / Friday the 13th
Страна: США
Студия: New Jersey, USA
Жанр: слэшер
Год выпуска: 1980
Продолжительность: 01:35:05
Перевод: Проффесиональный двухглосый
Перевод 2: Авторский (одноголосый закадровыйТовбин
Перевод 3: Авторский (одноголосый закадровый) Иванов
Перевод 4: Авторский (одноголосый закадровый) Живов
Перевод 5: Одноголосый закадровый (переводчик не опознан)
Перевод 6: Авторский (одноголосый закадровый) Кузнецов
Cубтитры: нет
Оригинальная аудиодорожка: английский
Режиссер: Шон С Канниндхем / Sean S. Cunningham
В ролях: Бетси Палмер, Адрианн Кинг, Марк Нельсон, Гарри Кросби, Лори Бертрам, Кэвин Бейкон
Описание: Из-за недосмотра вожатых летнего лагеря, которые занимались в это время сексом, тонет мальчик по имени Джейсон. Сами вожатые позднее были найдены мертвыми. Убийцу не нашли, а лагерь закрыли. Двадцать лет спустя владелец лагеря около Кристального озера в Нью-Джерси нанимает семерых подростков, чтобы они навели там порядок до заезда отдыхающих. Несмотря на многочисленные предупреждения о том, что это место пользуется дурной славой, ребята соглашаются. А их, бедняжек, взяли и начали одного за другим убивать. В живых остается только девушка Элис. Ей удается обезглавить убийцу, которым оказывается миссис Вурхис, мать погибшего двадцать лет назад Джейсона. Именно 13-го числа у него был день рождения, и миссис Вурхис не хочет, чтобы лагерь снова открывали для отдыха и развлечений…
Режиссер использовал ту же схему сюжета, что и в картине Марио Бавы «Цепная реакция» (1971). Необходимо отметить новаторский прием Каннингхэма, который использовал камеру так, чтобы зритель оказывался на месте убийцы: он видит, как жертва кричит от ужаса, пытается бежать, спрятаться, закрывается руками, а ее в это время безжалостно убивают. Джейсон Вурхис стал одним из трех самых знаменитых убийц в Голливуде, наряду с Майклом Майерсом и Фредди Крюгером. Использованные в фильме технические приемы со временем превратились в клише, цитируемые практически в каждом фильме ужасов: увеличивающееся количество кровавых убийств, отдаленное расположение места разворачивающихся событий, желательно в лесу, неизвестные актеры, культовый герой-сам убийца, и примитивная мораль-если вы занимаетесь сексом, то непременно должны умереть. Примечательная деталь саги: не повторялась ни одна смерть, хотя режиссерам удалось «забить» более ста пятидесяти подростков. Джейсон еще не появляется в этом фильме, как не присутствует и хоккейная маска. Один из самых кровавых фильмов ужасов в истории жанра. Коммерческий успех этой картины сравним только с «Кошмарами на улице Вязов» (1985), что послужило причиной многочисленных продолжений. В картине десять трупов. Способы умерщвления разнятся от выпускания кишок и раскалывания черепа топором до обезглавливания и пронзания стрелой. Современный вариант произведения Агаты Кристи «А затем их не стало». Гример Том Савини получил за работу в картине всего 17 тысяч долларов, но с условием, что он самостоятельно сделает заключительную сцену с появлением Джейсона из воды и с тем условием, что это будет единственная картина. Но последовало множество продолжений, в которых Савини работать отказался, так как считал, что полностью самовыразился в финале картины. Вместо этого он принял участие в работе над аналогичным подростковым ужастиком «Обгоревший» (1981). На роль Элис проходила пробы Салли Филд. Роль миссис Вурхис должна была играть актриса Эстелль Парсонс. Актриса Адриенн Кинг первоначально отвергла роль, так как в фильме было слишком много насилия. Бетси Палмер согласилась на роль миссис Вурхис, так как ей очень была нужна новая машина. Она снималась 10 дней, за каждый получив по 1 тысяче долларов. Для съемок фильма были специально построены лишь декорации душевой комнаты. Остальные съемки проходили на натуре. Том Савини был утвержден в качестве гримера после того, как продюсеры были восхищены его работой в картине «Рассвет мертвецов» (1978). Создатели фильма не собирались использовать Джейсона в качестве главной движущей силы целой саги, а он был лишь причиной совершения убийств своей матерью. Съемки фильма заняли почти месяц. В эпизоде со змеей ее убивали в кадре по-настоящему. Режиссер Виктор Миллер признался, что своим фильмом хотел повторить успех картины Джона Карпентера «День всех святых» (1978). Рабочее название сценария было «Длинная ночь в кровавом лагере». Финальный эпизод с появлением из озера Джейсона Вурхиса придумал Том Савини. На кинофестивале «Mystfest» картина номинировалась на Гран-при. Фильм номинировался на анти-приз «Razzie» за худшую актрису второго плана (Палмер) и как худший фильм года. Бюджет картины составил всего 550 тысяч долларов, а в прокате США она собрала 40 миллионов и еще 17 миллионов выручила за право использования на территории США.
Доп. информация: ДВД из коллекции MORTICIANN большое спасибо.
Сэмпл: http://sendfile.su/1257102
Тип релиза: DVD5 (Custom)
Контейнер: DVD-Video
Видео: NTSC 16:9 (720x480) VBR Auto Letterboxed
Аудио: Russian (Dolby AC3, 192 kbps, 2 ch)
Аудио 2: Russian (Dolby AC3, 192 kbps, 2 ch)
Аудио 3: Russian (Dolby AC3, 192 kbps, 2 ch)
Аудио 4: Russian (Dolby AC3, 192 kbps, 2 ch)
Аудио 5: Russian (Dolby AC3, 192 kbps, 2 ch)
Аудио 6: Russian (Dolby AC3, 192 kbps, 2 ch)
Аудио 7: English (Dolby AC3, 192 kbps, 2 ch)

DVDInfo

Title: Friday the 13th_1980
Size: 4.34 Gb ( 4 555 688,00 KBytes ) - DVD-5
Enabled regions: 1, 2, 3, 4, 5, 6, 7, 8
VTS_01 :
Play Length: 01:35:05
Video: NTSC 16:9 (720x480) VBR, Auto Letterboxed
Audio:
Russian, AC3, 2/0 (L,R) ch, 192 kbps, Delay 0 mSec
Russian, AC3, 2/0 (L,R) ch, 192 kbps, Delay 0 mSec
Russian, AC3, 2/0 (L,R) ch, 192 kbps, Delay 0 mSec
Russian, AC3, 2/0 (L,R) ch, 192 kbps, Delay 0 mSec
Russian, AC3, 2/0 (L,R) ch, 192 kbps, Delay 0 mSec
Russian, AC3, 2/0 (L,R) ch, 192 kbps, Delay 0 mSec
English, AC3, 2/0 (L,R) ch, 192 kbps, Delay 0 mSec
VTS_02 :
Play Length: 00:00:20
Video: NTSC 4:3 (720x480) VBR
Audio:
English (Dolby AC3, 2 ch)
* Menus Information *
VIDEO_TS Menu
Video:
NTSC 4:3 (720x480) VBR
English Language Unit :
Title Menu
VTS_01 Menu
Video:
NTSC 4:3 (720x480) VBR
English Language Unit :
Root Menu
Audio Menu
VTS_02 Menu
Video:
NTSC 4:3 (720x480) VBR
Auto Pan&Scan, Auto Letterboxed
Language Unit :
Chapter (PTT) Menu

MediaInfo

Общее
Полное имя : C:\1\DVD ГОТОВ\Friday the 13th_1980\VIDEO_TS\VTS_01_1.VOB
Формат : MPEG-PS
Размер файла : 1024 Мбайт
Продолжительность : 22 м.
Режим общего битрейта : Переменный
Общий поток : 6391 Кбит/сек
Видео
Идентификатор : 224 (0xE0)
Формат : MPEG Video
Версия формата : Version 2
Профиль формата : Main@Main
Параметр BVOP формата : Да
Параметр матрицы формата : Выборочная
Параметр GOP формата : Variable
Продолжительность : 22 м.
Вид битрейта : Переменный
Битрейт : 4920 Кбит/сек
Максимальный битрейт : 9800 Кбит/сек
Ширина : 720 пикселей
Высота : 480 пикселей
Соотношение сторон : 16:9
Частота кадров : 23,976 кадра/сек
Стандарт вещания : Component
Цветовое пространство : YUV
Субдискретизация насыщенности : 4:2:0
Битовая глубина : 8 бит
Тип развёртки : Прогрессивная
Порядок развёртки : 2:3 Pulldown
Метод сжатия : С потерями
Бит/(Пиксели*Кадры) : 0.594
Временной код первого кадра : 00:00:00:00
Оригинал временного кода : Group of pictures header
Размер потока : 788 Мбайт (77%)
Основные цвета : BT.601 NTSC
Характеристики трансфера : BT.601
Коэффициенты матрицы : BT.601
Аудио #1
Идентификатор : 189 (0xBD)-128 (0x80)
Формат : AC-3
Формат/Информация : Audio Coding 3
Расширение режима : CM (complete main)
Параметр Endianness формата : Big
Режим смешивания : DVD-Video
Продолжительность : 22 м.
Вид битрейта : Постоянный
Битрейт : 192 Кбит/сек
Каналы : 2 канала
Расположение каналов : Front: L R
Частота : 48,0 КГц
Метод сжатия : С потерями
Размер потока : 30,8 Мбайт (3%)
Аудио #2
Идентификатор : 189 (0xBD)-129 (0x81)
Формат : AC-3
Формат/Информация : Audio Coding 3
Расширение режима : CM (complete main)
Параметр Endianness формата : Big
Режим смешивания : DVD-Video
Продолжительность : 22 м.
Вид битрейта : Постоянный
Битрейт : 192 Кбит/сек
Каналы : 2 канала
Расположение каналов : Front: L R
Частота : 48,0 КГц
Метод сжатия : С потерями
Размер потока : 30,8 Мбайт (3%)
Аудио #3
Идентификатор : 189 (0xBD)-130 (0x82)
Формат : AC-3
Формат/Информация : Audio Coding 3
Расширение режима : CM (complete main)
Параметр Endianness формата : Big
Режим смешивания : DVD-Video
Продолжительность : 22 м.
Вид битрейта : Постоянный
Битрейт : 192 Кбит/сек
Каналы : 2 канала
Расположение каналов : Front: L R
Частота : 48,0 КГц
Метод сжатия : С потерями
Размер потока : 30,8 Мбайт (3%)
Аудио #4
Идентификатор : 189 (0xBD)-131 (0x83)
Формат : AC-3
Формат/Информация : Audio Coding 3
Расширение режима : CM (complete main)
Параметр Endianness формата : Big
Режим смешивания : DVD-Video
Продолжительность : 22 м.
Вид битрейта : Постоянный
Битрейт : 192 Кбит/сек
Каналы : 2 канала
Расположение каналов : Front: L R
Частота : 48,0 КГц
Метод сжатия : С потерями
Размер потока : 30,8 Мбайт (3%)
Аудио #5
Идентификатор : 189 (0xBD)-132 (0x84)
Формат : AC-3
Формат/Информация : Audio Coding 3
Расширение режима : CM (complete main)
Параметр Endianness формата : Big
Режим смешивания : DVD-Video
Продолжительность : 22 м.
Вид битрейта : Постоянный
Битрейт : 192 Кбит/сек
Каналы : 2 канала
Расположение каналов : Front: L R
Частота : 48,0 КГц
Метод сжатия : С потерями
Размер потока : 30,8 Мбайт (3%)
Аудио #6
Идентификатор : 189 (0xBD)-133 (0x85)
Формат : AC-3
Формат/Информация : Audio Coding 3
Расширение режима : CM (complete main)
Параметр Endianness формата : Big
Режим смешивания : DVD-Video
Продолжительность : 22 м.
Вид битрейта : Постоянный
Битрейт : 192 Кбит/сек
Каналы : 2 канала
Расположение каналов : Front: L R
Частота : 48,0 КГц
Метод сжатия : С потерями
Размер потока : 30,8 Мбайт (3%)
Аудио #7
Идентификатор : 189 (0xBD)-134 (0x86)
Формат : AC-3
Формат/Информация : Audio Coding 3
Расширение режима : CM (complete main)
Параметр Endianness формата : Big
Режим смешивания : DVD-Video
Продолжительность : 22 м.
Вид битрейта : Постоянный
Битрейт : 192 Кбит/сек
Каналы : 2 канала
Расположение каналов : Front: L R
Частота : 48,0 КГц
Метод сжатия : С потерями
Размер потока : 30,8 Мбайт (3%)
Текст
Идентификатор : 224 (0xE0)-CC3
Формат : EIA-608
Режим смешивания, доп. информация : Muxed in Video #1
Вид битрейта : Постоянный
Размер потока : 0,00 байт (0%)
Меню

Скриншоты меню

Скриншоты



Показать сообщения:    

Текущее время: 12-Дек 21:56

Часовой пояс: UTC ± 0


Вы не можете начинать темы
Вы не можете отвечать на сообщения
Вы не можете редактировать свои сообщения
Вы не можете удалять свои сообщения
Вы не можете голосовать в опросах
Вы не можете прикреплять файлы к сообщениям
Вы не можете скачивать файлы

!ВНИМАНИЕ!
Сайт не предоставляет электронные версии произведений, а занимается лишь коллекционированием и каталогизацией ссылок, присылаемых и публикуемых на форуме нашими читателями. Если вы являетесь правообладателем какого-либо представленного материала и не желаете, чтобы ссылка на него находилась в нашем каталоге, свяжитесь с нами, и мы незамедлительно удалим ее. Файлы для обмена на трекере предоставлены пользователями сайта, и администрация не несет ответственности за их содержание. Просьба не заливать файлы, защищенные авторскими правами, а также файлы нелегального содержания!