Важное объявление!
У Нас Все раздачи мультитрекерные, при нуле пиров в релизах, можете смело вставать на закачку!
 
Автор Сообщение

HUNTER

Стаж:
4 года 8 месяцев
Сообщений:
62034

Репутация: 101

[+] [-]
Вне форума [Профиль] [ЛС]


- Пятница -
Friday

«Режиссерская версия • Director's Cut»
-
Страна: США
Студия: New Line Cinema, Priority Films
Жанр: комедия
Год выпуска: 1995
Продолжительность: 01:37:06-Переводы:
Профессиональный (многоголосый закадровый) - [ОРТ]
Авторский (одноголосый закадровый) - [Диктор CDV]
Cубтитры: есть (русские, форсированные) - только на расширенные сцены-Режиссер: Ф. Гэри Грей / F. Gary Gray
В ролях: Айс Кьюб, Крис Такер, Найа Лонг, Тайни "Зевс" Листер, Анна Мария Хорсфорд, Реджина Кинг, Пола Джэй Паркер, Берни Мэк, Энджела Минз, Фэйзон Лав, Энтони Джонсон, Викилин Рейнолдс, Ла Уонда Пэйдж и др.
Описание: Двое отвязных парней из Лос-Анджелеса - любители пропустить стаканчик-другой на пороге собственного дома - ждут не дождутся, когда же наступит пятница. Позади рабочая неделя, так почему бы не расслабиться за кружечкой пивка, не раскурить "косячок" и не поглазеть на проходящих мимо девчонок.
И так - каждую неделю, пока однажды ребята не притронулись к чужой "траве", полученной для реализации. Теперь их мирный уик-энд превращается в сплошные погони, ссоры с соседями, немыслимые переделки и нешуточную борьбу за жизнь. Ведь Большой Червяк - владелец наркотиков - грозится убить обоих, если друзья не достанут 200 баксов.- -Релиз от: -Качество видео: HDRip (Исходник: BDRip 720p)
Формат видео: AVI
Видео кодек: XviD
Аудио кодек: AC3
Видео: 720x400 (1.80:1), 23.976 fps, XviD build 50 ~1744 kbps avg, 0.25 bit/pixel
| Аудио #1: 48 kHz, AC3 Dolby Digital, 2ch, 192 Kbps | Rus | MVO
| Аудио #2: 48 kHz, AC3 Dolby Digital, 2ch, 192 Kbps | Rus | AVO- -

MediaInfo

Код:
General
Complete name                            : 1.-Friday.Director's.Cut.1995.DUAL.HDRip.XviD.AC3.-ANTipiGo.avi
Format                                   : AVI
Format/Info                              : Audio Video Interleave
File size                                : 1.45 GiB
Duration                                 : 1h 37mn
Overall bit rate                         : 2 144 Kbps
Movie name                               : Пятница [Режиссерская версия] / Friday [Director's Cut] / 1995 год
Director                                 : ANTipiGo
Genre                                    : Comedy
Writing application                      : VirtualDubMod 1.5.10.2 (build 2540/release)
Original source form/Name                : Movie
Video
ID                                       : 0
Format                                   : MPEG-4 Visual
Format profile                           : Advanced Simple@L5
Format settings, BVOP                    : 1
Format settings, QPel                    : No
Format settings, GMC                     : No warppoints
Format settings, Matrix                  : Default (MPEG)
Codec ID                                 : XVID
Codec ID/Hint                            : XviD
Duration                                 : 1h 37mn
Bit rate                                 : 1 745 Kbps
Width                                    : 720 pixels
Height                                   : 400 pixels
Display aspect ratio                     : 16:9
Original display aspect ratio            : 16:9
Frame rate                               : 23.976 fps
Color space                              : YUV
Chroma subsampling                       : 4:2:0
Bit depth                                : 8 bits
Scan type                                : Progressive
Compression mode                         : Lossy
Bits/(Pixel*Frame)                       : 0.253
Stream size                              : 1.18 GiB (81%)
Writing library                          : XviD 1.2.1 (UTC 2008-12-04)
Audio #1
ID                                       : 1
Format                                   : AC-3
Format/Info                              : Audio Coding 3
Mode extension                           : CM (complete main)
Format settings, Endianness              : Big
Codec ID                                 : 2000
Duration                                 : 1h 37mn
Bit rate mode                            : Constant
Bit rate                                 : 192 Kbps
Channel(s)                               : 2 channels
Channel positions                        : Front: L R
Sampling rate                            : 48.0 KHz
Bit depth                                : 16 bits
Compression mode                         : Lossy
Stream size                              : 133 MiB (9%)
Alignment                                : Split accross interleaves
Interleave, duration                     : 42 ms (1.00 video frame)
Interleave, preload duration             : 500 ms
Title                                    : Профессиональный (многоголосый, закадровый) - [ОРТ]
Audio #2
ID                                       : 2
Format                                   : AC-3
Format/Info                              : Audio Coding 3
Mode extension                           : CM (complete main)
Format settings, Endianness              : Big
Codec ID                                 : 2000
Duration                                 : 1h 37mn
Bit rate mode                            : Constant
Bit rate                                 : 192 Kbps
Channel(s)                               : 2 channels
Channel positions                        : Front: L R
Sampling rate                            : 48.0 KHz
Bit depth                                : 16 bits
Compression mode                         : Lossy
Stream size                              : 133 MiB (9%)
Alignment                                : Split accross interleaves
Interleave, duration                     : 42 ms (1.00 video frame)
Interleave, preload duration             : 500 ms
Title                                    : Авторский (одноголосый, закадровый) - [Диктор CDV]

-

Скриншоты


-

Доп. инфо

На момент создания раздачи - на трекере есть 2-е раздачи с многоголосой озвучкой: ОРТ и РТР. В раздаче ОРТ: 3 вырезанные момента, а у РТР: 13 вырезанных моментов.
Как заявляют авторы тех раздач: у ОРТ недостающие сцены были дополнены озвучкой Санаева, а у РТР недостающие сцены были дополнены озвучкой диктора CDV.
На самом деле озвучка в этих раздачах одинаковая (не разная) и у обоих недостающие сцены были дополнены озвучкой диктора CDV.
Озвучка с канала РТР записана намного качественнее чем с ОРТ. Но, у РТР (повторюсь) 13 вырезанных моментов, а у ОРТ только 3... из за чего для данной раздачи пришлось собирать из двух записей - одну. В сценах которые не показывали по ТВ - озвучка диктора CDV.-Озвучка диктора CDV из этой раздачи.-Режиссерская версия длиннее театральной где-то на 6 минут. Отсутствие звукового перевода в расширенных сценах компенсируется русскими субтитрами. Субтитры были взяты из этой раздачи.
-
- Следующая пятница -
Next Friday
-
Страна: США
Студия: New Line Cinema, Cube Vision
Жанр: комедия
Год выпуска: 2000
Продолжительность: 01:38:10-Переводы:
Профессиональный (дублированный) - [Мосфильм]
Авторский (одноголосый закадровый) - [Диктор CDV]
Cубтитры: нет-Режиссер: Стив Карр / Steve Carr
В ролях: Айс Кьюб, Майк Еппс, Джастин Пирс, Джон Уизерспун, Дон "Ди Си" Керри, Джейкоб Варгас, Лобо Себастьян, Роландо Молина, Лиза Родригез, Том «Тайни» Листер мл., Ким Уитли, Эми Хилл, Тамала Джонс, Леди Ренье Рейдж, Клифтон Пауэлл и др.
Описание: Из тюрьмы сбегает хулиган Дибо, которого Крэйг когда-то победил в стычке. Теперь громила хочет отомстить своему старому врагу.
Отец в срочном порядке отправляет Крэйга к его дяде Элрою и кузену Дэй-Дэю, которые живут в роскошном особняке на Ранчо-Кукамонга, купленном на деньги, выигранные в лотерею. Однако образ жизни дядя ведет далеко не правильный. Поэтому на Крэйга сваливаются новые проблемы. Теперь ему срочно нужно достать денег, чтобы любимые родственники не лишились своего дома.
Дибо по-прежнему продолжает поиски Крэйга. Помимо этого, сногсшибательная латино-американская красотка готова на все ради его внимания, а ее вооруженные до зубов братья - бандиты бьются в истерике от злости. В общем скучать ему не приходится.- -Релиз от: -Качество видео: DVDRip (Исходник: DVD: 9)
Формат видео: AVI
Видео кодек: XviD
Аудио кодек: AC3
Видео: 720x384 (1.88:1), 23.976 fps, XviD build 50 ~1726 kbps avg, 0.26 bit/pixel
| Аудио #1: 48 kHz, AC3 Dolby Digital, 2ch, 192 Kbps | Rus | DUB
| Аудио #2: 48 kHz, AC3 Dolby Digital, 2ch, 192 Kbps | Rus | AVO- -

MediaInfo

Код:
General
Complete name                            : 2.-Next.Friday.2000.DUAL.DVDRip.XviD.AC3.-ANTipiGo.avi
Format                                   : AVI
Format/Info                              : Audio Video Interleave
File size                                : 1.46 GiB
Duration                                 : 1h 38mn
Overall bit rate                         : 2 125 Kbps
Movie name                               : Следующая пятница / Next Friday / 2000 год
Director                                 : ANTipiGo
Genre                                    : Comedy
Writing application                      : VirtualDubMod 1.5.10.2 (build 2540/release)
Original source form/Name                : Movie
Video
ID                                       : 0
Format                                   : MPEG-4 Visual
Format profile                           : Advanced Simple@L5
Format settings, BVOP                    : 1
Format settings, QPel                    : No
Format settings, GMC                     : No warppoints
Format settings, Matrix                  : Default (MPEG)
Codec ID                                 : XVID
Codec ID/Hint                            : XviD
Duration                                 : 1h 38mn
Bit rate                                 : 1 727 Kbps
Width                                    : 720 pixels
Height                                   : 384 pixels
Display aspect ratio                     : 1.85:1
Frame rate                               : 23.976 fps
Color space                              : YUV
Chroma subsampling                       : 4:2:0
Bit depth                                : 8 bits
Scan type                                : Progressive
Compression mode                         : Lossy
Bits/(Pixel*Frame)                       : 0.261
Stream size                              : 1.18 GiB (81%)
Writing library                          : XviD 1.2.1 (UTC 2008-12-04)
Audio #1
ID                                       : 1
Format                                   : AC-3
Format/Info                              : Audio Coding 3
Mode extension                           : CM (complete main)
Format settings, Endianness              : Big
Codec ID                                 : 2000
Duration                                 : 1h 38mn
Bit rate mode                            : Constant
Bit rate                                 : 192 Kbps
Channel(s)                               : 2 channels
Channel positions                        : Front: L R
Sampling rate                            : 48.0 KHz
Bit depth                                : 16 bits
Compression mode                         : Lossy
Stream size                              : 135 MiB (9%)
Alignment                                : Split accross interleaves
Interleave, duration                     : 42 ms (1.00 video frame)
Interleave, preload duration             : 500 ms
Title                                    : Профессиональный (полное дублирование) - [Laser Video]
Audio #2
ID                                       : 2
Format                                   : AC-3
Format/Info                              : Audio Coding 3
Mode extension                           : CM (complete main)
Format settings, Endianness              : Big
Codec ID                                 : 2000
Duration                                 : 1h 38mn
Bit rate mode                            : Constant
Bit rate                                 : 192 Kbps
Channel(s)                               : 2 channels
Channel positions                        : Front: L R
Sampling rate                            : 48.0 KHz
Bit depth                                : 16 bits
Compression mode                         : Lossy
Stream size                              : 135 MiB (9%)
Alignment                                : Split accross interleaves
Interleave, duration                     : 42 ms (1.00 video frame)
Interleave, preload duration             : 500 ms
Title                                    : Авторский (одноголосый, закадровый) - [Диктор CDV]

-

Скриншоты


-

Доп. инфо

Дублированная озвучка была оцифрована со своей VHS от «ЛАЗЕР ВИДЕО ИНТЕРНЭШНЛ».
Ранее я уже снимал со своей кассеты звук для другой раздачи. Но, результат еще тогда был не особо утешительный... Альтернативы чтобы как-то иначе (лучше) снять звук у меня на тот момент просто не было. В результате - выложил что получилось.
Для данного релиза - все совсем иначе. Звук снимал по новой и уже на совсем другом оборудовании. Звук чистый. Стерео. Без шума!-Озвучка диктора CDV из этой раздачи.
-
- Еще одна пятница | Пятница после следующей -
Friday After Next
-
Страна: США
Студия: New Line Cinema, Cube Vision, Avery Pix
Жанр: комедия
Год выпуска: 2002
Продолжительность: 01:20:50-Переводы:
Профессиональный (многоголосый закадровый) - [UPR] a.k.a. [Premier]
Профессиональный (многоголосый закадровый) - [?]
Авторский (одноголосый закадровый) - [Сергей Визгунов]
Cубтитры: нет-Режиссер: Маркус Рэбой / Marcus Raboy
В ролях: Айс Кьюб, Майк Еппс, Джон Уизерспун, Дон "Ди Си" Керри, Анна Мария Хорсфорд, Клифтон Пауэлл, К.Д. Обер, Бебе Дрэйк, Кэт Уильямс, Рики Смайли, Терри Крюс, Маз Джобрани, Регги Гэскинс, Брайан Степанек и др.
Описание: Постоянно попадающие в неприятности Крэйг и Дэй-Дэй повзрослели: веселые ребята наконец-то находят работу и начинают жить отдельно от родителей. Они снимают простенькую квартирку и переезжают туда. Но и тут беда не обходит их стороной: в рождественские праздники переодетый в Санта-Клауса преступник обворовывает их дом. Таким образом Крэйг и Дэй-Дэй лишаются своего нехитрого, но милого сердцу имущества.
Чернокожие приятели не могут оставить деяние бандита безнаказанным, да и украденные вещи просто необходимо вернуть. Парни отправляются на поиски этого злого Санты. С этого момента и начинаются их опасные, но веселые приключения!- -Релиз от: -Качество видео: DVDRip (Исходник: DVD: 5)
Формат видео: AVI
Видео кодек: XviD
Аудио кодек: AC3
Видео: 720x384 (1.88:1), 25 fps, XviD build 50 ~1792 kbps avg, 0.26 bit/pixel
| Аудио #1: 48 kHz, AC3 Dolby Digital, 6ch, 384 Kbps | Rus | MVO
| Аудио #2: 48 kHz, AC3 Dolby Digital, 2ch, 192 Kbps | Rus | MVO
| Аудио #3: 48 kHz, AC3 Dolby Digital, 2ch, 192 Kbps | Rus | AVO- -

MediaInfo

Код:
General
Complete name                            : 3.-Friday.After.Next.2002.TRIPLE.DVDRip.XviD.AC3.-ANTipiGo.avi
Format                                   : AVI
Format/Info                              : Audio Video Interleave
File size                                : 1.46 GiB
Duration                                 : 1h 20mn
Overall bit rate                         : 2 581 Kbps
Movie name                               : Пятница после следующей (Еще одна пятница) / Friday After Next / 2002 год
Director                                 : ANTipiGo
Genre                                    : Comedy
Writing application                      : VirtualDubMod 1.5.10.2 (build 2540/release)
Original source form/Name                : Movie
Video
ID                                       : 0
Format                                   : MPEG-4 Visual
Format profile                           : Advanced Simple@L5
Format settings, BVOP                    : 1
Format settings, QPel                    : No
Format settings, GMC                     : No warppoints
Format settings, Matrix                  : Default (MPEG)
Codec ID                                 : XVID
Codec ID/Hint                            : XviD
Duration                                 : 1h 20mn
Bit rate                                 : 1 794 Kbps
Width                                    : 720 pixels
Height                                   : 384 pixels
Display aspect ratio                     : 1.85:1
Frame rate                               : 25.000 fps
Color space                              : YUV
Chroma subsampling                       : 4:2:0
Bit depth                                : 8 bits
Scan type                                : Progressive
Compression mode                         : Lossy
Bits/(Pixel*Frame)                       : 0.260
Stream size                              : 1.01 GiB (70%)
Writing library                          : XviD 1.2.1 (UTC 2008-12-04)
Audio #1
ID                                       : 1
Format                                   : AC-3
Format/Info                              : Audio Coding 3
Mode extension                           : CM (complete main)
Format settings, Endianness              : Big
Codec ID                                 : 2000
Duration                                 : 1h 20mn
Bit rate mode                            : Constant
Bit rate                                 : 384 Kbps
Channel(s)                               : 6 channels
Channel positions                        : Front: L C R, Side: L R, LFE
Sampling rate                            : 48.0 KHz
Bit depth                                : 16 bits
Compression mode                         : Lossy
Delay relative to video                  : 486ms
Stream size                              : 222 MiB (15%)
Alignment                                : Split accross interleaves
Interleave, duration                     : 40 ms (1.00 video frame)
Interleave, preload duration             : 500 ms
Title                                    : Профессиональный (многоголосый, закадровый) - [UPR]
Audio #2
ID                                       : 2
Format                                   : AC-3
Format/Info                              : Audio Coding 3
Mode extension                           : CM (complete main)
Format settings, Endianness              : Big
Codec ID                                 : 2000
Duration                                 : 1h 20mn
Bit rate mode                            : Constant
Bit rate                                 : 192 Kbps
Channel(s)                               : 2 channels
Channel positions                        : Front: L R
Sampling rate                            : 48.0 KHz
Bit depth                                : 16 bits
Compression mode                         : Lossy
Delay relative to video                  : 486ms
Stream size                              : 111 MiB (7%)
Alignment                                : Split accross interleaves
Interleave, duration                     : 40 ms (1.00 video frame)
Interleave, preload duration             : 500 ms
Title                                    : Профессиональный (многоголосый, закадровый) - [Premier]
Audio #3
ID                                       : 3
Format                                   : AC-3
Format/Info                              : Audio Coding 3
Mode extension                           : CM (complete main)
Format settings, Endianness              : Big
Codec ID                                 : 2000
Duration                                 : 1h 20mn
Bit rate mode                            : Constant
Bit rate                                 : 192 Kbps
Channel(s)                               : 2 channels
Channel positions                        : Front: L R
Sampling rate                            : 48.0 KHz
Bit depth                                : 16 bits
Compression mode                         : Lossy
Delay relative to video                  : 486ms
Stream size                              : 111 MiB (7%)
Alignment                                : Split accross interleaves
Interleave, duration                     : 40 ms (1.00 video frame)
Interleave, preload duration             : 500 ms
Title                                    : Авторский (одноголосый, закадровый) - [Сергей Визгунов]

-

Скриншоты


-

Доп. инфо

Многоголосая озвучка Universal Pictures Rus (a.k.a. Премьер Видео Фильм) из этой раздачи.-Неизвестная многоголосая озвучка из этой раздачи. На момент создания раздачи - от первоисточника заявлялось что это озвучка от Премьер Видео Фильм, в связи с чем в тэгах видеозаписи, данная звуковая дорожка была подписана как "Premiere". Информация о том, что это озвучка не от Премьер Видео Фильм появилась уже после релиза.-Одноголосая озвучка Сергея Визгунова была оцифрована со своей VHS от «ПАРУС-ВИДЕО»
-

_________________
Показать сообщения:    

Текущее время: Сегодня 07:20

Часовой пояс: GMT



Вы не можете начинать темы
Вы не можете отвечать на сообщения
Вы не можете редактировать свои сообщения
Вы не можете удалять свои сообщения
Вы не можете голосовать в опросах
Вы не можете прикреплять файлы к сообщениям
Вы не можете скачивать файлы
Наши партнеры: интернет магазин Ивановского трикотажа textilla.ru