Важное объявление!
У Нас Все раздачи мультитрекерные, при нуле пиров в релизах, можете смело вставать на закачку!
Статистика раздачи
Размер:     |    Зарегистрирован:     |    Скачан:     |   
Нет
 
     
 
 
Автор Сообщение

HUNTER

Стаж:
5 лет 1 месяц
Сообщений:
68429

Репутация: 101

[+] [-]
Вне форума [Профиль] [ЛС]

Пэн: Путешествие в НетландиюPan«У каждой легенды есть своё начало»-
Год выпуска: 2015
Страна: США, Великобритания, Австралия
Жанр: фэнтези, приключения, семейный
Продолжительность: 01:51:32-Перевод: Профессиональный (полное дублирование) [iTunes]
Субтитры: Русские (форсированные, полные)
Режиссер: Джо Райт / Joe Wright
В ролях: Хью Джекман (Blackbeard), Леви Миллер (Peter), Гаррет Хедлунд (Hook), Руни Мара (Tiger Lily), Адиль Ахтар (Sam Smiegel), Нонсо Анози (Bishop), Аманда Сайфред (Mary), Кэти Бёрк (Mother Barnabas), Льюис МакДугалл (Nibs), Кара Делевинь (Mermaids), Тхэ-чжу На (Kwahu), Джек Чарльз (Chief)-Описание: История о сироте, который попал в волшебную Нетландию, где его поджидали опасные приключения. Там он понял, что его судьба - стать героем, который навсегда останется известен под именем Питер Пэн.--Качество: BDRip-AVC
Контейнер: MKV
Видео кодек: AVC
Аудио кодек: AC3
Видео: AVC, 1040x448 (2.40:1), 1500 kbps, 23,976 fps, 0,134 bpp
Аудио №1: Русский / AC3 / 5.1 / 48 kHz / 384 kbps / 16 bit
Аудио №2: Английский / AC3 / 5.1 / 48 kHz / 640 kbps / 16 bit- -

Скриншоты

Media Info

General
Unique ID : 253300104927778730216377785023068966073 (0xBE8FD3610DF231A5A64087B5881D0CB9)
Complete name : D:\Пэн.2015.BDRip-AVC.Dub.mkv
Format : Matroska
Format version : Version 4 / Version 2
File size : 1.97 GiB
Duration : 1h 51mn
Overall bit rate : 2 526 Kbps
Encoded date : UTC 2015-12-31 18:34:56
Writing application : mkvmerge v7.8.0 ('River Man') 32bit built on Mar 27 2015 16:18:02
Writing library : libebml v1.3.1 + libmatroska v1.4.2
DURATION : 01:44:22.755000000
NUMBER_OF_FRAMES : 12
NUMBER_OF_BYTES : 469
_STATISTICS_WRITING_APP : mkvmerge v7.8.0 ('River Man') 32bit built on Mar 27 2015 16:18:02
_STATISTICS_WRITING_DATE_UT : 2015-12-31 18:34:56
_STATISTICS_TAGS : BPS DURATION NUMBER_OF_FRAMES NUMBER_OF_BYTES
Video
ID : 1
Format : AVC
Format/Info : Advanced Video Codec
Format profile : High@L4.1
Format settings, CABAC : No
Format settings, ReFrames : 4 frames
Codec ID : V_MPEG4/ISO/AVC
Duration : 1h 51mn
Bit rate : 1 500 Kbps
Width : 1 040 pixels
Height : 448 pixels
Display aspect ratio : 2.40:1
Frame rate mode : Constant
Frame rate : 23.976 fps
Color space : YUV
Chroma subsampling : 4:2:0
Bit depth : 8 bits
Scan type : Progressive
Bits/(Pixel*Frame) : 0.134
Stream size : 1.13 GiB (57%)
Writing library : x264 core 128 r2216M 198a7ea
Encoding settings : cabac=0 / ref=5 / deblock=0:-1:-1 / analyse=0x3:0x133 / me=umh / subme=9 / psy=1 / psy_rd=1.00:0.15 / mixed_ref=1 / me_range=32 / chroma_me=1 / trellis=0 / 8x8dct=1 / cqm=0 / deadzone=21,11 / fast_pskip=1 / chroma_qp_offset=-2 / threads=4 / lookahead_threads=1 / sliced_threads=0 / nr=0 / decimate=1 / interlaced=0 / bluray_compat=0 / constrained_intra=0 / bframes=5 / b_pyramid=1 / b_adapt=1 / b_bias=0 / direct=3 / weightb=0 / open_gop=0 / weightp=0 / keyint=230 / keyint_min=23 / scenecut=40 / intra_refresh=0 / rc_lookahead=40 / rc=2pass / mbtree=1 / bitrate=1500 / ratetol=1.0 / qcomp=0.60 / qpmin=10 / qpmax=51 / qpstep=4 / cplxblur=20.0 / qblur=0.5 / ip_ratio=1.40 / aq=1:1.00
Language : English
Default : Yes
Forced : No
DURATION : 01:51:31.977000000
NUMBER_OF_FRAMES : 160447
NUMBER_OF_BYTES : 1254618785
_STATISTICS_WRITING_APP : mkvmerge v7.8.0 ('River Man') 32bit built on Mar 27 2015 16:18:02
_STATISTICS_WRITING_DATE_UT : 2015-12-31 18:34:56
_STATISTICS_TAGS : BPS DURATION NUMBER_OF_FRAMES NUMBER_OF_BYTES
Audio #1
ID : 2
Format : AC-3
Format/Info : Audio Coding 3
Mode extension : CM (complete main)
Format settings, Endianness : Big
Codec ID : A_AC3
Duration : 1h 51mn
Bit rate mode : Constant
Bit rate : 384 Kbps
Channel(s) : 6 channels
Channel positions : Front: L C R, Side: L R, LFE
Sampling rate : 48.0 KHz
Compression mode : Lossy
Delay relative to video : 2s 630ms
Stream size : 306 MiB (15%)
Language : Russian
Default : Yes
Forced : No
DURATION : 01:51:28.320000000
NUMBER_OF_FRAMES : 209010
NUMBER_OF_BYTES : 321039360
_STATISTICS_WRITING_APP : mkvmerge v7.8.0 ('River Man') 32bit built on Mar 27 2015 16:18:02
_STATISTICS_WRITING_DATE_UT : 2015-12-31 18:34:56
_STATISTICS_TAGS : BPS DURATION NUMBER_OF_FRAMES NUMBER_OF_BYTES
Audio #2
ID : 3
Format : AC-3
Format/Info : Audio Coding 3
Mode extension : CM (complete main)
Format settings, Endianness : Big
Codec ID : A_AC3
Duration : 1h 51mn
Bit rate mode : Constant
Bit rate : 640 Kbps
Channel(s) : 6 channels
Channel positions : Front: L C R, Side: L R, LFE
Sampling rate : 48.0 KHz
Compression mode : Lossy
Stream size : 511 MiB (25%)
Language : English
Default : No
Forced : No
DURATION : 01:51:32.128000000
NUMBER_OF_FRAMES : 209129
NUMBER_OF_BYTES : 535370240
_STATISTICS_WRITING_APP : mkvmerge v7.8.0 ('River Man') 32bit built on Mar 27 2015 16:18:02
_STATISTICS_WRITING_DATE_UT : 2015-12-31 18:34:56
_STATISTICS_TAGS : BPS DURATION NUMBER_OF_FRAMES NUMBER_OF_BYTES
Text
ID : 4
Format : UTF-8
Codec ID : S_TEXT/UTF8
Codec ID/Info : UTF-8 Plain Text
Language : Russian
Default : Yes
Forced : Yes
Menu
00:00:00.000 : en:00:00:00.000
00:10:28.419 : en:00:10:28.419
00:19:45.851 : en:00:19:45.851
00:31:07.282 : en:00:31:07.282
00:39:14.060 : en:00:39:14.060
00:48:27.863 : en:00:48:27.863
01:00:07.562 : en:01:00:07.562
01:09:29.374 : en:01:09:29.374
01:20:12.808 : en:01:20:12.808
01:30:02.897 : en:01:30:02.897
01:39:51.027 : en:01:39:51.027
01:43:05.888 : en:01:43:05.888

_________________
Показать сообщения:    

Текущее время: Сегодня 13:14

Часовой пояс: GMT



Вы не можете начинать темы
Вы не можете отвечать на сообщения
Вы не можете редактировать свои сообщения
Вы не можете удалять свои сообщения
Вы не можете голосовать в опросах
Вы не можете прикреплять файлы к сообщениям
Вы не можете скачивать файлы