Ивановский Торрент трекер
Яндекс.Погода
 

[Цитировать]
HUNTER

Пэйтон Плейс / Peyton Place
Страна: США
Жанр: драма, мелодрама
Год выпуска: 1957
Продолжительность: 02:36:59
Перевод: Профессиональный (многоголосый закадровый)
Cубтитры: русские (forced, full), английские
Оригинальная аудиодорожка: английский
Режиссер: Марк Робсон / Mark Robson
В ролях: Лана Тернер, Ли Филипс, Ллойд Нолан, Артур Кеннеди, Расс Тэмблин, Терри Мур, Хоуп Лэнг, Дайан Варси, Дэвид Нельсон, Бэрри Коу
Описание: Несмотря на то, что Констанс, как и другие родители, населяющие этот образцово-порядочный городок, стремятся растить своих детей-подростков по всем правилам хорошего тона и воспитания, скандалы только набирают оборот вокруг них: пьяный сторож избивает свою падчерицу, что влечет за собой убийство, суд и осознание того, что все в этом городе далеко не так хорошо, как кажется.
Доп. информация:


За дорожку с переводом спасибо BOLiK_Ltd
Сэмпл: http://sendfile.su/1052489
Тип релиза: WEB-DL 720p
Контейнер: MKV
Видео: AVC, 1280x544, L3.1, 23.976fps, 4125kbps
Аудио 1: Russian: AC3, 48000Hz, 4ch, 448kbps
Аудио 2: English: AC3, 48000Hz, 4ch, 448kbps - DVD
Аудио 3: English: AAC, 48000Hz, 2ch, 163kbps - WEB-DL
Формат субтитров: softsub (SRT)

MediaInfo

Общее
Уникальный идентификатор : 203748985584217511571519054987640117589 (0x9948A0934B130BE898C23C07939B1955)
Полное имя : T:\Peyton Place (WEB-DL 720p).mkv
Формат : Matroska
Версия формата : Version 4 / Version 2
Размер файла : 5,69 Гбайт
Продолжительность : 2 ч. 36 м.
Общий поток : 5185 Кбит/сек
Название фильма : Peyton Place for rutracker.org
Дата кодирования : UTC 2014-11-24 07:23:53
Программа кодирования : mkvmerge v6.9.1 ('Blue Panther') 64bit built on Apr 18 2014 18:23:38
Библиотека кодирования : libebml v1.3.0 + libmatroska v1.4.1
Видео
Идентификатор : 1
Формат : AVC
Формат/Информация : Advanced Video Codec
Профиль формата : Main@L3.1
Параметр CABAC формата : Нет
Параметр ReFrames формата : 2 кадра
Идентификатор кодека : V_MPEG4/ISO/AVC
Продолжительность : 2 ч. 36 м.
Ширина : 1280 пикселей
Высота : 544 пикселя
Соотношение сторон : 2,35:1
Режим частоты кадров : Постоянный
Частота кадров : 23,976 кадра/сек
Цветовое пространство : YUV
Субдискретизация насыщенности : 4:2:0
Битовая глубина : 8 бит
Тип развёртки : Прогрессивная
Язык : English
Default : Да
Forced : Нет
Основные цвета : BT.709
Характеристики трансфера : BT.709
Коэффициенты матрицы : BT.709
Аудио #1
Идентификатор : 2
Формат : AC-3
Формат/Информация : Audio Coding 3
Расширение режима : CM (complete main)
Параметр Endianness формата : Big
Идентификатор кодека : A_AC3
Продолжительность : 2 ч. 36 м.
Вид битрейта : Постоянный
Битрейт : 448 Кбит/сек
Каналы : 4 канала
Расположение каналов : Front: L C R, Back: C
Частота : 48,0 КГц
Битовая глубина : 16 бит
Метод сжатия : С потерями
Размер потока : 503 Мбайт (9%)
Заголовок : R5
Язык : Russian
Default : Да
Forced : Нет
Аудио #2
Идентификатор : 3
Формат : AC-3
Формат/Информация : Audio Coding 3
Расширение режима : CM (complete main)
Параметр Endianness формата : Big
Идентификатор кодека : A_AC3
Продолжительность : 2 ч. 36 м.
Вид битрейта : Постоянный
Битрейт : 448 Кбит/сек
Каналы : 4 канала
Расположение каналов : Front: L C R, Back: C
Частота : 48,0 КГц
Битовая глубина : 16 бит
Метод сжатия : С потерями
Размер потока : 503 Мбайт (9%)
Заголовок : DVD
Язык : English
Default : Нет
Forced : Нет
Аудио #3
Идентификатор : 4
Формат : AAC
Формат/Информация : Advanced Audio Codec
Профиль формата : LC
Идентификатор кодека : A_AAC
Продолжительность : 2 ч. 36 м.
Каналы : 2 канала
Расположение каналов : Front: L R
Частота : 48,0 КГц
Метод сжатия : С потерями
Заголовок : WEB-DL
Язык : English
Default : Нет
Forced : Нет
Текст #1
Идентификатор : 5
Формат : UTF-8
Идентификатор кодека : S_TEXT/UTF8
Идентификатор кодека/Информация : UTF-8 Plain Text
Заголовок : forced
Язык : Russian
Default : Да
Forced : Нет
Текст #2
Идентификатор : 6
Формат : UTF-8
Идентификатор кодека : S_TEXT/UTF8
Идентификатор кодека/Информация : UTF-8 Plain Text
Заголовок : full
Язык : Russian
Default : Нет
Forced : Нет
Текст #3
Идентификатор : 7
Формат : UTF-8
Идентификатор кодека : S_TEXT/UTF8
Идентификатор кодека/Информация : UTF-8 Plain Text
Язык : English
Default : Нет
Forced : Нет
Меню
00:00:00.000 : en:Main Titles / Seasons
00:03:23.000 : en:Mr. Rossi
00:08:06.000 : en:Allison
00:11:35.000 : en:Miss Thornton
00:14:51.000 : en:New Principal
00:19:26.000 : en:Life Lessons
00:23:31.000 : en:Fast Girl
00:26:14.000 : en:Aspirations
00:28:52.000 : en:Birthday Party
00:33:22.000 : en:Who's That?
00:36:11.000 : en:Standards
00:39:31.000 : en:Sunday Services
00:43:16.000 : en:Secret Place
00:49:44.000 : en:Using Time
00:53:29.000 : en:School Dance
01:02:34.000 : en:Rebuffed
01:04:23.000 : en:Rape
01:07:49.000 : en:Independence
01:12:25.000 : en:Family Secret
01:16:35.000 : en:Darker Secret
01:21:49.000 : en:Town Picnic
01:26:30.000 : en:Having Fun
01:29:50.000 : en:Gone Swimming
01:34:04.000 : en:Mike's Offer
01:39:23.000 : en:Accusations
01:43:16.000 : en:Adult Decisions
01:46:58.000 : en:Winter of Despair
01:52:29.000 : en:Honor Roll
01:56:12.000 : en:Confession
02:00:05.000 : en:Lucas
02:06:07.000 : en:Old Friends
02:09:18.000 : en:Hard Truths
02:15:12.000 : en:The Trial
02:26:41.000 : en:Moral Obligation
02:31:11.000 : en:Peyton Place
02:35:07.000 : en:Season of Love

Скриншоты



Показать сообщения:    

Текущее время: 12-Дек 22:03

Часовой пояс: UTC ± 0


Вы не можете начинать темы
Вы не можете отвечать на сообщения
Вы не можете редактировать свои сообщения
Вы не можете удалять свои сообщения
Вы не можете голосовать в опросах
Вы не можете прикреплять файлы к сообщениям
Вы не можете скачивать файлы

!ВНИМАНИЕ!
Сайт не предоставляет электронные версии произведений, а занимается лишь коллекционированием и каталогизацией ссылок, присылаемых и публикуемых на форуме нашими читателями. Если вы являетесь правообладателем какого-либо представленного материала и не желаете, чтобы ссылка на него находилась в нашем каталоге, свяжитесь с нами, и мы незамедлительно удалим ее. Файлы для обмена на трекере предоставлены пользователями сайта, и администрация не несет ответственности за их содержание. Просьба не заливать файлы, защищенные авторскими правами, а также файлы нелегального содержания!