Ивановский Торрент трекер
Яндекс.Погода
 

[Цитировать]
HUNTER

Пчёлка Майя / Maya The Bee – Movie«Невероятно сладкая история»- Страна: Австралия, Германия | Buzz Studios
Жанр: фэнтези, приключения
Продолжительность: 01:28:10
Год выпуска: 2014
Перевод: Профессиональный (полное дублирование) iTunes
Русские субтитры: нет
Режиссёр: Алекс Стадерманн / Alexs Stadermann
Роли озвучивали: Нина Шаттон, Коди Смит-МакФи, Ноа Тейлор, Джеки Уивер, Ричард Роксбург, Мириам Маргулис, Джастин Кларк, Энди МакФи, Косма Шива Хаген, Коко Джек Гиллис-ОписаниеЛегендарная пчелка доросла до большого экрана. Любопытная Пчелка Майя всегда в поисках приключений и с готовностью перевернет все в улье с ног на голову, чем нередко выводит из себя наставницу госпожу Кассандру. Впрочем, в улье случилось гораздо более глобальное несчастье — похищен королевский нектар, эликсир жизни пчелиной Королевы! Советница монарха Жужжала обвиняет во всем ос и выставляет Майю их сообщницей. Вместе со своим лучшим другом Уилли отважная пчелка вынуждена отправиться в полное опасностей путешествие, чтобы разыскать украденную ценность и спасти жизнь своей Королеве.-Сэмпл

IMDb: 6.20 (183)
Качество: BDRip-AVC P4ELA_MAYJA_3D_BLUEBIRD
Формат: MKV
Видео: AVC 2537 Kbps 1152 x 624 (1.846) at 23.976 fps
Аудио: AC-3 384 Kbps 6 channels, 48.0 KHz
Субтитры: Нет

MI | Log

Log
x264 [info]: frame I:1245 Avg QP:13.58 size: 75523
x264 [info]: frame P:32361 Avg QP:15.15 size: 26183
x264 [info]: frame B:93239 Avg QP:18.57 size: 8304
x264 [info]: consecutive B-frames: 4.6% 4.5% 14.9% 21.6% 12.5% 37.2% 2.5% 0.6% 0.6% 0.3% 0.1% 0.3% 0.1% 0.1% 0.2%
x264 [info]: mb I I16..4: 10.1% 65.6% 24.2%
x264 [info]: mb P I16..4: 2.6% 15.4% 3.3% P16..4: 27.5% 30.5% 9.9% 1.6% 0.2% skip: 9.0%
x264 [info]: mb B I16..4: 0.5% 2.0% 0.3% B16..8: 31.0% 18.9% 3.0% direct: 3.5% skip:40.8% L0:41.6% L1:46.5% BI:11.9%
x264 [info]: 8x8 transform intra:71.4% inter:57.7%
x264 [info]: direct mvs spatial:100.0% temporal:0.0%
x264 [info]: coded y,uvDC,uvAC intra: 72.1% 86.8% 74.7% inter: 12.4% 15.2% 5.7%
x264 [info]: i16 v,h,dc,p: 20% 13% 4% 63%
x264 [info]: i8 v,h,dc,ddl,ddr,vr,hd,vl,hu: 11% 11% 11% 9% 11% 12% 11% 12% 13%
x264 [info]: i4 v,h,dc,ddl,ddr,vr,hd,vl,hu: 13% 11% 12% 7% 14% 12% 12% 9% 10%
x264 [info]: i8c dc,h,v,p: 37% 27% 18% 19%
x264 [info]: Weighted P-Frames: Y:1.9% UV:1.7%
x264 [info]: ref P L0: 53.7% 6.9% 17.4% 6.0% 4.3% 3.3% 2.7% 1.6% 1.4% 1.3% 1.2% 0.3% 0.0%
x264 [info]: ref B L0: 78.8% 10.8% 4.3% 1.9% 1.3% 1.0% 0.8% 0.5% 0.4% 0.2%
x264 [info]: ref B L1: 93.3% 6.7%
x264 [info]: kb/s:2594.23
x264 [total]: encoded 126845 frames, 8.14 fps, 2594.23 kb/s, duration 4:19:48.24
Format                                   : MatroskaFormat version                           : Version 4 / Version 2File size                                : 1.84 GiBDuration                                 : 1h 28mnOverall bit rate                         : 2 980 KbpsEncoded date                             : UTC 2015-01-11 21:21:04Writing application                      : mkvmerge v6.7.0 ('Back to the Ground') 32bit built on Jan  8 2014 15:03:17Writing library                          : libebml v1.3.0 + libmatroska v1.4.1
VideoID : 1Format : AVCFormat/Info : Advanced Video CodecFormat profile : High@L4.1Format settings, CABAC : YesFormat settings, ReFrames : 11 framesCodec ID : V_MPEG4/ISO/AVCDuration : 1h 28mnBit rate : 2 537 KbpsWidth : 1 152 pixelsHeight : 624 pixelsDisplay aspect ratio : 1.85:1Frame rate mode : ConstantFrame rate : 23.976 fpsColor space : YUVChroma subsampling : 4:2:0Bit depth : 8 bitsScan type : ProgressiveBits/(Pixel*Frame) : 0.147Stream size : 1.56 GiB (85%)Title : Maya The Bee - Movie [rutracker.org]Writing library : x264 core 144 r2525kMod 40bb568Encoding settings : cabac=1 / ref=11 / deblock=1:-2:-1 / analyse=0x3:0x133 / me=umh / subme=11 / psy=1 / fade_compensate=0.00 / psy_rd=1.00:0.05 / mixed_ref=1 / me_range=32 / chroma_me=1 / trellis=2 / 8x8dct=1 / cqm=0 / deadzone=21,11 / fast_pskip=0 / chroma_qp_offset=-3 / threads=12 / lookahead_threads=3 / sliced_threads=0 / nr=0 / decimate=1 / interlaced=0 / bluray_compat=0 / constrained_intra=0 / fgo=0 / bframes=14 / b_pyramid=2 / b_adapt=2 / b_bias=0 / direct=3 / weightb=1 / open_gop=0 / weightp=2 / keyint=250 / keyint_min=23 / scenecut=40 / intra_refresh=0 / rc_lookahead=80 / rc=crf / mbtree=0 / crf=17.3000 / qcomp=0.60 / qpmin=0 / qpmax=69 / qpstep=4 / vbv_maxrate=50000 / vbv_bufsize=62500 / crf_max=0.0 / nal_hrd=none / filler=0 / ip_ratio=1.40 / pb_ratio=1.30 / aq=3:0.90Language : EnglishDefault : YesForced : No
AudioID : 2Format : AC-3Format/Info : Audio Coding 3Mode extension : CM (complete main)Format settings, Endianness : BigCodec ID : A_AC3Duration : 1h 28mnBit rate mode : ConstantBit rate : 384 KbpsChannel(s) : 6 channelsChannel positions : Front: L C R, Side: L R, LFESampling rate : 48.0 KHzBit depth : 16 bitsCompression mode : LossyStream size : 242 MiB (13%)Title : Dub [iTunes]Language : RussianDefault : YesForced : No

Скриншоты





Показать сообщения:    

Текущее время: 11-Дек 19:16

Часовой пояс: UTC ± 0


Вы не можете начинать темы
Вы не можете отвечать на сообщения
Вы не можете редактировать свои сообщения
Вы не можете удалять свои сообщения
Вы не можете голосовать в опросах
Вы не можете прикреплять файлы к сообщениям
Вы не можете скачивать файлы

!ВНИМАНИЕ!
Сайт не предоставляет электронные версии произведений, а занимается лишь коллекционированием и каталогизацией ссылок, присылаемых и публикуемых на форуме нашими читателями. Если вы являетесь правообладателем какого-либо представленного материала и не желаете, чтобы ссылка на него находилась в нашем каталоге, свяжитесь с нами, и мы незамедлительно удалим ее. Файлы для обмена на трекере предоставлены пользователями сайта, и администрация не несет ответственности за их содержание. Просьба не заливать файлы, защищенные авторскими правами, а также файлы нелегального содержания!