Важное объявление!
У Нас Все раздачи мультитрекерные, при нуле пиров в релизах, можете смело вставать на закачку!
 
Автор Сообщение

HUNTER

Стаж:
4 года 7 месяцев
Сообщений:
61476

Репутация: 101

[+] [-]
Вне форума [Профиль] [ЛС]

Пчёлка Майя / Maya The Bee – Movie«Невероятно сладкая история»-
Страна: Австралия, Германия | Buzz Studios
Жанр: фэнтези, приключения
Продолжительность: 01:28:10
Год выпуска: 2014
Перевод: Профессиональный (полное дублирование) iTunes
Русские субтитры: нет
Режиссёр: Алекс Стадерманн / Alexs Stadermann
Роли озвучивали: Нина Шаттон, Коди Смит-МакФи, Ноа Тейлор, Джеки Уивер, Ричард Роксбург, Мириам Маргулис, Джастин Кларк, Энди МакФи, Косма Шива Хаген, Коко Джек Гиллис-ОписаниеЛегендарная пчелка доросла до большого экрана. Любопытная Пчелка Майя всегда в поисках приключений и с готовностью перевернет все в улье с ног на голову, чем нередко выводит из себя наставницу госпожу Кассандру. Впрочем, в улье случилось гораздо более глобальное несчастье — похищен королевский нектар, эликсир жизни пчелиной Королевы! Советница монарха Жужжала обвиняет во всем ос и выставляет Майю их сообщницей. Вместе со своим лучшим другом Уилли отважная пчелка вынуждена отправиться в полное опасностей путешествие, чтобы разыскать украденную ценность и спасти жизнь своей Королеве.- | | Сэмпл | Совместный релиз: и -Качество: BDRip Maya.the.Bee.Movie.2014.1080p.2D+3D.ESP.Blu-ray.AVC.DTS-HD.MA.5.1-ReHD
Формат: AVI
Видео: 720x384 (1.88:1), 23.976 fps, XviD ~1977 kbps, 0.30 bit/pixel
Аудио:: 48 kHz, AC3, 3/2 (L,C,R,l,r) + LFE ch, ~384 kbps (Русский)
Субтитры: отсутствуют

MI

GeneralComplete name : Maya The Bee – Movie.BDRip.2014_Olu6ka.aviFormat : AVIFormat/Info : Audio Video InterleaveFile size : 1.46 GiBDuration : 1h 28mnOverall bit rate : 2 371 KbpsWriting application : VirtualDubModRus 1.5.10.2 (build 2542/release)Writing library : VirtualDubMod build 2542/release
VideoID : 0Format : MPEG-4 VisualFormat profile : Advanced Simple@L5Format settings, BVOP : 1Format settings, QPel : NoFormat settings, GMC : No warppointsFormat settings, Matrix : CustomCodec ID : XVIDCodec ID/Hint : XviDDuration : 1h 28mnBit rate : 1 977 KbpsWidth : 720 pixelsHeight : 384 pixelsDisplay aspect ratio : 1.85:1Frame rate : 23.976 fpsColor space : YUVChroma subsampling : 4:2:0Bit depth : 8 bitsScan type : ProgressiveCompression mode : LossyBits/(Pixel*Frame) : 0.298Stream size : 1.22 GiB (83%)Writing library : XviD 73
AudioID : 1Format : AC-3Format/Info : Audio Coding 3Mode extension : CM (complete main)Format settings, Endianness : BigCodec ID : 2000Duration : 1h 28mnBit rate mode : ConstantBit rate : 384 KbpsChannel count : 6 channelsChannel positions : Front: L C R, Side: L R, LFESampling rate : 48.0 KHzBit depth : 16 bitsCompression mode : LossyStream size : 242 MiB (16%)Alignment : Split accross interleavesInterleave, duration : 42 ms (1.00 video frame)Interleave, preload duration : 500 ms
Цитата:

Раздачи рипов и ремуксов, изготовленных из Blu-Ray Disc 3D (BD3D) ЗАПРЕЩЕНЫ!
Данный рип - с комбинированного 2D/3D издания

_________________
Показать сообщения:    

Текущее время: Сегодня 11:22

Часовой пояс: GMT



Вы не можете начинать темы
Вы не можете отвечать на сообщения
Вы не можете редактировать свои сообщения
Вы не можете удалять свои сообщения
Вы не можете голосовать в опросах
Вы не можете прикреплять файлы к сообщениям
Вы не можете скачивать файлы
Наши партнеры: интернет магазин Ивановского трикотажа textilla.ru