Важное объявление!
У Нас Все раздачи мультитрекерные, при нуле пиров в релизах, можете смело вставать на закачку!
 
Автор Сообщение

HUNTER

Стаж:
4 года 10 месяцев
Сообщений:
65531

Репутация: 101

[+] [-]
Вне форума [Профиль] [ЛС]

Пушка для Кордовы / Cannon for Cordoba-
Страна: США
Студия: The Mirisch Production Company | United Artists
Жанр: Вестерн
Год выпуска: 1970
Продолжительность: 01:39:16-Перевод: Профессиональный (двухголосый закадровый) НТВ+
Cубтитры: нет
Оригинальная аудиодорожка: английский-Режиссер: Пол Уэндкос / Paul Wendkos
В ролях: Джордж Пеппард, Джованна Ралли, Раф Валлоне, Пит Дюл, Дон Гордон, Nico Minardos, Габриэле Тинти, Джон Ларч, Френсин Йорк, Джон Расселл...- | Релиз: -Описание: 1916 год. Мексиканский бунтовщик Кордова крадет шесть пушек у генерала Першинга, который должен обеспечить порядок на границе США и Мексики. Генерал посылает солдата Рода Дугласа в Мексику, чтобы вернуть пушки назад. Дуглас принимает на работу троих людей, которые наряду с мексиканским чиновником и загадочной женщиной, совершают путешествие к горной крепости Кордовы…-Семпл: http://sendfile.su/1143911-Тип релиза: HDTV 1080i
Контейнер: TS
Видео: 1920x1080i (16:9), 25.000 fps, AVC, ~6285 Kbps, 0.121 bits/pixel
Аудио 1: Русский, 48.0 KHz, MPEG-1 Audio layer 2, 2 ch, 192 kbps
Аудио 2: English, 48.0 KHz, MPEG-1 Audio layer 2, 2 ch, 192 kbps

MediaInfo

GeneralID : 1 (0x1)Complete name : Cannon for Cordoba 1970 MGMHD 1080i.rus.eng.tsFormat : MPEG-TSFile size : 4.87 GiBDuration : 1h 39mnOverall bit rate mode : VariableOverall bit rate : 7 020 KbpsMaximum Overall bit rate : 35.5 Mbps
VideoID : 4113 (0x1011)Menu ID : 1 (0x1)Format : AVCFormat/Info : Advanced Video CodecFormat profile : Main@L4Format settings, CABAC : YesFormat settings, ReFrames : 4 framesCodec ID : 27Duration : 1h 39mnBit rate : 6 285 KbpsWidth : 1 920 pixelsHeight : 1 080 pixelsDisplay aspect ratio : 16:9Frame rate : 25.000 fpsStandard : ComponentColor space : YUVChroma subsampling : 4:2:0Bit depth : 8 bitsScan type : InterlacedScan order : Top Field FirstBits/(Pixel*Frame) : 0.121Stream size : 4.36 GiB (90%)Color range : LimitedColor primaries : BT.709Transfer characteristics : BT.709Matrix coefficients : BT.709
Audio #1ID : 4352 (0x1100)Menu ID : 1 (0x1)Format : MPEG AudioFormat version : Version 1Format profile : Layer 2Codec ID : 4Duration : 1h 39mnBit rate mode : ConstantBit rate : 192 KbpsChannel(s) : 2 channelsSampling rate : 48.0 KHzCompression mode : LossyStream size : 136 MiB (3%)Language : Russian
Audio #2ID : 4353 (0x1101)Menu ID : 1 (0x1)Format : MPEG AudioFormat version : Version 1Format profile : Layer 2Codec ID : 4Duration : 1h 39mnBit rate mode : ConstantBit rate : 192 KbpsChannel(s) : 2 channelsSampling rate : 48.0 KHzCompression mode : LossyStream size : 136 MiB (3%)Language : English

Скриншоты


_________________
Показать сообщения:    

Текущее время: Сегодня 07:55

Часовой пояс: GMT



Вы не можете начинать темы
Вы не можете отвечать на сообщения
Вы не можете редактировать свои сообщения
Вы не можете удалять свои сообщения
Вы не можете голосовать в опросах
Вы не можете прикреплять файлы к сообщениям
Вы не можете скачивать файлы